<?xml version="1.0" standalone="no"?>
<!DOCTYPE svg PUBLIC "-//W3C//DTD SVG 1.1//EN" "http://www.w3.org/Graphics/SVG/1.1/DTD/svg11.dtd" >
<svg>
<metadata>
Created by FontForge 20090622 at Fri May  6 09:18:50 2016
 By deploy user
Copyright (c) 2008 by Jos Buivenga. All rights reserved.
</metadata>
<defs>
<font id="MuseoSans-900" horiz-adv-x="406" >
  <font-face 
    font-family="Museo Sans 900"
    font-weight="700"
    font-stretch="normal"
    units-per-em="1000"
    panose-1="2 0 0 0 0 0 0 0 0 0"
    ascent="750"
    descent="-250"
    x-height="515"
    cap-height="715"
    bbox="-130 -210 1220 918"
    underline-thickness="50"
    underline-position="-50"
    unicode-range="U+0020-U+FB04"
  />
<missing-glyph horiz-adv-x="510" 
d="M5 0v700h500v-700h-500zM255 395l170 255h-340zM285 350l170 -255v510zM55 95l170 255l-170 255v-510zM85 50h340l-170 255z" />
    <glyph glyph-name="f_f" unicode="ff" horiz-adv-x="768" 
d="M480 0v380h-211v-380h-173v380h-63v135h63v12q0 48 17 84.5t41.5 56.5t59 32t62 15.5t56.5 3.5l52 -3v-146q-12 2 -28 2q-87 0 -87 -50v-7h211v12q0 48 17 84.5t41.5 56.5t59 32t62 15.5t56.5 3.5l52 -3v-146q-12 2 -28 2q-87 0 -87 -50v-7h95v-135h-95v-380h-173z" />
    <glyph glyph-name="fi" unicode="fi" horiz-adv-x="685" 
d="M448 0v380h-179v-380h-173v380h-63v135h63v12q0 48 17 84.5t41.5 56.5t59 32t62 15.5t56.5 3.5l52 -3v-146q-12 2 -28 2q-87 0 -87 -50v-7h352v-515h-173zM450 580v135h169v-135h-169z" />
    <glyph glyph-name="fl" unicode="fl" horiz-adv-x="707" 
d="M96 0v371h-63v135h63v21q0 48 17 84.5t41.5 56.5t59 32t62 15.5t56.5 3.5l52 -3v-146q-12 2 -28 2q-87 0 -87 -50v-16h95v-135h-95v-371h-173zM441 190v525h173v-502q0 -38 9.5 -52t38.5 -14l21 1v-150q-24 -3 -52 -3q-40 0 -69.5 6.5t-59 25.5t-45.5 60t-16 103z" />
    <glyph glyph-name="f_f_i" unicode="ffi" horiz-adv-x="1069" 
d="M480 0v380h-211v-380h-173v380h-63v135h63v12q0 48 17 84.5t41.5 56.5t59 32t62 15.5t56.5 3.5l52 -3v-146q-12 2 -28 2q-87 0 -87 -50v-7h211v12q0 48 17 84.5t41.5 56.5t59 32t62 15.5t56.5 3.5l52 -3v-146q-12 2 -28 2q-87 0 -87 -50v-7h352v-515h-173v380h-179v-380
h-173zM834 580v135h169v-135h-169z" />
    <glyph glyph-name="f_f_l" unicode="ffl" horiz-adv-x="1091" 
d="M480 0v380h-211v-380h-173v380h-63v135h63v12q0 48 17 84.5t41.5 56.5t59 32t62 15.5t56.5 3.5l52 -3v-146q-12 2 -28 2q-87 0 -87 -50v-7h211v12q0 48 17 84.5t41.5 56.5t59 32t62 15.5t56.5 3.5l52 -3v-146q-12 2 -28 2q-87 0 -87 -50v-7h95v-135h-95v-380h-173z
M825 190v525h173v-502q0 -38 9.5 -52t38.5 -14l21 1v-150q-24 -3 -52 -3q-40 0 -69.5 6.5t-59 25.5t-45.5 60t-16 103z" />
    <glyph glyph-name="f_j" unicode="fj" horiz-adv-x="685" 
d="M96 0v380h-63v135h63v12q0 48 17 84.5t41.5 56.5t59 32t62 15.5t56.5 3.5l52 -3v-146q-12 2 -28 2q-87 0 -87 -50v-7h352v-528q0 -49 -18 -86.5t-43.5 -57.5t-61 -32t-63 -15.5t-56.5 -3.5l-46 3v144q9 -1 22 -1q93 0 93 66v376h-179v-380h-173zM450 580v135h169v-135
h-169z" />
    <glyph glyph-name=".notdef" horiz-adv-x="510" 
d="M5 0v700h500v-700h-500zM255 395l170 255h-340zM285 350l170 -255v510zM55 95l170 255l-170 255v-510zM85 50h340l-170 255z" />
    <glyph glyph-name=".null" horiz-adv-x="0" 
 />
    <glyph glyph-name="nonmarkingreturn" horiz-adv-x="333" 
 />
    <glyph glyph-name="space" unicode=" " horiz-adv-x="229" 
 />
    <glyph glyph-name="exclam" unicode="!" horiz-adv-x="366" 
d="M109 221l-16 494h180l-16 -494h-148zM104 0v150h158v-150h-158z" />
    <glyph glyph-name="quotedbl" unicode="&#x22;" horiz-adv-x="413" 
d="M241 490v240h122v-240h-122zM50 490v240h122v-240h-122z" />
    <glyph glyph-name="numbersign" unicode="#" horiz-adv-x="699" 
d="M101 0l31 180h-101l20 120h101l17 95h-99l20 120h99l35 200h134l-35 -200h108l35 200h134l-35 -200h105l-20 -120h-105l-17 -95h103l-20 -120h-103l-31 -180h-134l31 180h-108l-31 -180h-134zM286 300h108l17 95h-108z" />
    <glyph glyph-name="dollar" unicode="$" horiz-adv-x="592" 
d="M39 90l92 133q9 -8 25 -20.5t61 -33t85 -20.5q31 0 53 13.5t22 43.5q0 21 -33.5 40.5t-81.5 39t-95.5 45.5t-81 71.5t-33.5 105.5q0 82 53 139.5t138 73.5v94h109v-91q54 -6 100 -25.5t64 -36.5l19 -16l-74 -143q-8 7 -22.5 17.5t-56 28t-79.5 17.5q-31 0 -53.5 -14
t-22.5 -42q0 -17 18 -31.5t46.5 -26.5l63.5 -25.5t69.5 -32.5t63 -42.5t46.5 -60t18 -81.5q0 -82 -53.5 -142.5t-146.5 -75.5v-91h-109v91q-37 5 -71.5 17t-57.5 25.5t-41 26t-26 21.5z" />
    <glyph glyph-name="percent" unicode="%" horiz-adv-x="852" 
d="M210 382q-76 0 -128.5 50t-52.5 122q0 71 53 122t128 51t128 -51t53 -122q0 -72 -53 -122t-128 -50zM69 0l552 715h152l-552 -715h-152zM210 502q23 0 39 15.5t16 37.5q0 21 -16.5 36.5t-38.5 15.5t-38.5 -15.5t-16.5 -36.5q0 -22 16 -37.5t39 -15.5zM456 160
q0 71 53 122t128 51t128 -51t53 -122q0 -72 -53 -122t-128 -50q-76 0 -128.5 50t-52.5 122zM582 161q0 -22 16 -37.5t39 -15.5t39 15.5t16 37.5q0 21 -16.5 36.5t-38.5 15.5t-38.5 -15.5t-16.5 -36.5z" />
    <glyph glyph-name="ampersand" unicode="&#x26;" horiz-adv-x="704" 
d="M39 207q0 55 31.5 102.5t82.5 68.5v2q-3 2 -9 5t-20.5 16t-25.5 29t-20 44t-9 60q0 97 68.5 145t167.5 48q23 0 49 -3t40 -6l14 -3l-40 -137q-18 4 -39 4q-36 0 -59.5 -19t-23.5 -55q0 -29 19.5 -49t53.5 -20h87v88h172v-88h89v-150h-89v-69q0 -100 -73 -166t-200 -66
q-120 0 -193 62.5t-73 156.5zM218 218q0 -29 25 -50t62 -21q48 0 74.5 23t26.5 60v59h-98q-90 0 -90 -71z" />
    <glyph glyph-name="quotesingle" unicode="'" horiz-adv-x="225" 
d="M50 490v240h125v-240h-125z" />
    <glyph glyph-name="parenleft" unicode="(" horiz-adv-x="336" 
d="M182 -95q-124 196 -124 442q0 212 124 403h142q-113 -189 -113 -403q0 -227 113 -442h-142z" />
    <glyph glyph-name="parenright" unicode=")" horiz-adv-x="336" 
d="M154 -95h-142q113 215 113 442q0 214 -113 403h142q124 -191 124 -403q0 -246 -124 -442z" />
    <glyph glyph-name="asterisk" unicode="*" horiz-adv-x="462" 
d="M175 309l-122 88l75 83v2l-110 23l46 143l102 -45l-11 112h152l-12 -112l103 46l47 -143l-111 -23v-2l76 -83l-122 -89l-56 97h-2z" />
    <glyph glyph-name="plus" unicode="+" horiz-adv-x="628" 
d="M41 222v130h205v223h136v-223h205v-130h-205v-222h-136v222h-205z" />
    <glyph glyph-name="comma" unicode="," horiz-adv-x="288" 
d="M6 -111l75 277h165l-113 -277h-127z" />
    <glyph glyph-name="hyphen" unicode="-" horiz-adv-x="448" 
d="M67 212v150h314v-150h-314z" />
    <glyph glyph-name="period" unicode="." horiz-adv-x="280" 
d="M58 0v164h164v-164h-164z" />
    <glyph glyph-name="slash" unicode="/" horiz-adv-x="434" 
d="M21 -42l256 792h144l-256 -792h-144z" />
    <glyph glyph-name="zero" unicode="0" horiz-adv-x="640" 
d="M320 -12q-74 0 -127.5 28.5t-83.5 80.5t-44 117t-14 145t14 144.5t44 116t83.5 79.5t127.5 28t127.5 -28t83.5 -79.5t44 -116t14 -144.5t-14 -145t-44 -117t-83.5 -80.5t-127.5 -28.5zM320 148q89 0 89 211q0 208 -89 208t-89 -208q0 -211 89 -211z" />
    <glyph glyph-name="one" unicode="1" horiz-adv-x="555" 
d="M56 0v150h152v298l1 55h-2q-9 -20 -28 -38l-43 -39l-101 108l193 181h151v-565h153v-150h-476z" />
    <glyph glyph-name="two" unicode="2" horiz-adv-x="601" 
d="M56 0q-8 45 -8 77q0 62 23 115t57 87t74.5 65t74.5 52.5t57 46t23 48.5q0 35 -23 53t-54 18q-30 0 -56.5 -19t-37.5 -38l-12 -19l-130 87l8.5 16.5t27 37t47.5 47t71.5 37t97.5 16.5q98 0 171 -56.5t73 -162.5q0 -62 -29.5 -113t-72.5 -83.5t-85.5 -59t-73.5 -52
t-32 -50.5h304v-150h-495z" />
    <glyph glyph-name="three" unicode="3" horiz-adv-x="587" 
d="M30 82l84 135q7 -7 20 -17.5t51.5 -28.5t75.5 -18q47 0 74.5 20.5t27.5 50.5q0 79 -133 79h-50l-37 85l94 113l30.5 35t23.5 24l8 8v2q-23 -5 -68 -5h-171v150h451v-109l-145 -167q79 -17 126 -74t47 -133q0 -100 -69.5 -172t-195.5 -72q-45 0 -86.5 9.5t-69 23.5
t-48.5 28t-30 23z" />
    <glyph glyph-name="four" unicode="4" horiz-adv-x="644" 
d="M26 173v106l276 436h214v-397h85v-145h-85v-173h-173v173h-317zM204 318h139v160l6 80h-2q-15 -44 -35 -74l-108 -164v-2z" />
    <glyph glyph-name="five" unicode="5" horiz-adv-x="584" 
d="M38 82l84 135q7 -7 20 -17.5t51 -28.5t74 -18q39 0 69.5 23.5t30.5 64.5t-32 65t-82 24q-24 0 -48 -6t-36 -12l-12 -6l-93 35l29 374h400v-150h-248l-4 -66l-4 -28h2q25 7 52 7q122 0 189 -66.5t67 -168.5q0 -111 -74 -183t-191 -72q-44 0 -85.5 9.5t-69 23.5t-48.5 28
t-31 23z" />
    <glyph glyph-name="six" unicode="6" horiz-adv-x="619" 
d="M336 -12q-118 0 -204 89t-86 253q0 74 22.5 144t64 127t108 91.5t146.5 34.5q44 0 83.5 -7.5t57.5 -15.5l17 -8l-47 -150q-47 21 -98 21q-115 0 -154 -118h2q13 9 43 17t55 8q106 0 170 -73.5t64 -171.5q0 -97 -66.5 -169t-177.5 -72zM336 148q32 0 52 23.5t20 56.5
q0 43 -27 74t-81 31q-74 0 -74 -43q0 -60 35 -101t75 -41z" />
    <glyph glyph-name="seven" unicode="7" horiz-adv-x="567" 
d="M65 0l251 501q11 22 22.5 38t17.5 21l6 6v2q-10 -3 -46 -3h-282v150h513v-122l-300 -593h-182z" />
    <glyph glyph-name="eight" unicode="8" horiz-adv-x="623" 
d="M44 210q0 42 22 82.5t40 59t37 32.5q-65 56 -65 137q0 86 61 146t179 60q104 0 173 -55.5t69 -151.5q0 -73 -70 -163q84 -58 84 -151q0 -89 -70 -153.5t-195 -64.5q-124 0 -194.5 65.5t-70.5 156.5zM395 215q0 7 -2 13t-7 12t-10 11t-14.5 11l-15.5 10t-19 10l-20.5 9.5
l-23 10.5l-22.5 10q-38 -40 -38 -87q0 -35 25 -59t61 -24q40 0 63 19t23 54zM249 517q0 -32 28 -52.5t87 -45.5q25 46 25 88q0 30 -20 48t-55 18q-32 0 -48.5 -15.5t-16.5 -40.5z" />
    <glyph glyph-name="nine" unicode="9" horiz-adv-x="619" 
d="M232 -12q-44 0 -83.5 8t-56.5 16l-18 7l47 150q47 -21 98 -21q115 0 154 118h-2q-12 -10 -42 -17.5t-56 -7.5q-106 0 -170 73.5t-64 171.5q0 97 66.5 169t177.5 72q118 0 204 -89t86 -253q0 -74 -22.5 -144t-64 -127t-108 -91.5t-146.5 -34.5zM319 382q74 0 74 43
q0 60 -35 101t-75 41q-32 0 -52 -23.5t-20 -56.5q0 -43 27 -74t81 -31z" />
    <glyph glyph-name="colon" unicode=":" horiz-adv-x="300" 
d="M68 351v164h164v-164h-164zM68 0v164h164v-164h-164z" />
    <glyph glyph-name="semicolon" unicode=";" horiz-adv-x="302" 
d="M83 351v164h158v-164h-158zM13 -111l65 277h166l-103 -277h-128z" />
    <glyph glyph-name="less" unicode="&#x3c;" horiz-adv-x="631" 
d="M60 234v107l504 223v-145l-330 -131v-2l330 -130v-145z" />
    <glyph glyph-name="equal" unicode="=" horiz-adv-x="646" 
d="M70 337v130h506v-130h-506zM70 107v130h506v-130h-506z" />
    <glyph glyph-name="greater" unicode="&#x3e;" horiz-adv-x="631" 
d="M67 11v145l330 130v2l-330 131v145l504 -223v-107z" />
    <glyph glyph-name="question" unicode="?" horiz-adv-x="501" 
d="M123 221v50q0 37 16 68.5t39.5 52l46.5 39t39 39.5t16 44q0 25 -21 42t-50 17q-21 0 -45 -10.5t-37 -21.5l-13 -11l-96 117l9 9t26 20t42.5 25t58 20t73.5 9q92 0 162.5 -52.5t70.5 -143.5q0 -45 -17.5 -82.5t-43 -61t-50.5 -44t-42.5 -43t-17.5 -46.5v-36h-166zM127 0
v150h158v-150h-158z" />
    <glyph glyph-name="at" unicode="@" horiz-adv-x="865" 
d="M44 239q0 159 112.5 267.5t280.5 108.5q156 0 227 -66.5t71 -173.5v-198h74v-119h-283q-106 0 -166.5 54t-60.5 128q0 72 59.5 124t167.5 52h49q0 30 -41.5 47t-93.5 17q-95 0 -161 -73.5t-66 -167.5q0 -101 67 -170t185 -69v-130q-192 0 -306.5 105t-114.5 264zM470 244
q0 -29 17 -48t49 -19h39v134h-37q-33 0 -50.5 -19t-17.5 -48z" />
    <glyph glyph-name="A" unicode="A" horiz-adv-x="662" 
d="M486 0l-44 150h-223l-43 -150h-180l243 715h184l243 -715h-180zM332 552h-2q-16 -78 -29 -123l-41 -139h141l-40 139z" />
    <glyph glyph-name="B" unicode="B" horiz-adv-x="659" 
d="M84 0v715h263q110 0 176.5 -48.5t66.5 -138.5q0 -46 -22 -87.5t-61 -64.5v-2q57 -17 84.5 -62.5t27.5 -98.5q0 -109 -77 -161t-195 -52h-263zM259 438h90q31 0 47 19t16 47q0 27 -16.5 44t-49.5 17h-87v-127zM259 150h105q36 0 56 21.5t20 53.5t-19 52.5t-56 20.5h-106
v-148z" />
    <glyph glyph-name="C" unicode="C" horiz-adv-x="720" 
d="M35 359q0 157 107 262.5t268 105.5q50 0 95.5 -10.5t75.5 -25.5t53 -29.5t34 -25.5l10 -10l-81 -132q-9 8 -25 20t-63 32.5t-91 20.5q-97 0 -149.5 -60t-52.5 -144q0 -86 54 -150.5t148 -64.5q48 0 95.5 22t70.5 44l24 22l90 -128q-4 -5 -12 -13t-35.5 -28.5t-58.5 -36.5
t-80.5 -29t-101.5 -13q-166 0 -270.5 105t-104.5 266z" />
    <glyph glyph-name="D" unicode="D" horiz-adv-x="746" 
d="M84 0v715h254q170 0 269.5 -94.5t99.5 -261.5q0 -168 -99.5 -263.5t-269.5 -95.5h-254zM259 150h72q92 0 143.5 54t51.5 155q0 100 -52 153t-143 53h-72v-415z" />
    <glyph glyph-name="E" unicode="E" horiz-adv-x="588" 
d="M84 0v715h448v-150h-273v-130h218v-150h-218v-135h287v-150h-462z" />
    <glyph glyph-name="F" unicode="F" horiz-adv-x="549" 
d="M84 0v715h438v-150h-263v-150h218v-150h-218v-265h-175z" />
    <glyph glyph-name="G" unicode="G" horiz-adv-x="770" 
d="M36 359q0 157 106.5 262.5t268.5 105.5q51 0 98.5 -10t78 -23.5t54 -27.5t34.5 -24l10 -10l-84 -131q-8 7 -23 18t-60.5 29.5t-90.5 18.5q-106 0 -158.5 -57.5t-52.5 -144.5q0 -99 59.5 -158t145.5 -59q37 0 73.5 13t54.5 26l17 13v55h-101v149h256v-404h-146v20l1 30h-2
q-8 -7 -22.5 -17.5t-63.5 -27.5t-102 -17q-144 0 -247.5 101t-103.5 270z" />
    <glyph glyph-name="H" unicode="H" horiz-adv-x="778" 
d="M84 0v715h175v-286h260v286h175v-715h-175v280h-260v-280h-175z" />
    <glyph glyph-name="I" unicode="I" horiz-adv-x="343" 
d="M84 0v715h175v-715h-175z" />
    <glyph glyph-name="J" unicode="J" horiz-adv-x="575" 
d="M21 220v52h175v-38q0 -40 14 -60q16 -26 52 -26q29 0 46 19t17 57v341h-192v150h367v-495q0 -111 -71 -171.5t-169 -60.5q-97 0 -168 61t-71 171z" />
    <glyph glyph-name="K" unicode="K" horiz-adv-x="692" 
d="M84 0v715h175v-276h72l148 276h188l-193 -342v-2l204 -371h-196l-151 290h-72v-290h-175z" />
    <glyph glyph-name="L" unicode="L" horiz-adv-x="563" 
d="M84 0v715h175v-565h292v-150h-467z" />
    <glyph glyph-name="M" unicode="M" horiz-adv-x="903" 
d="M62 0l59 715h190l104 -302l36 -118h2q20 72 36 118l104 302h190l58 -715h-175l-22 322q-2 24 -2 54t1 48l1 18h-2q-24 -75 -40 -120l-75 -207h-150l-75 207l-40 120h-2q4 -66 0 -120l-22 -322h-176z" />
    <glyph glyph-name="N" unicode="N" horiz-adv-x="772" 
d="M84 0v715h177l198 -334q12 -21 27 -51.5t24 -50.5l9 -20h2q-8 77 -8 122v334h175v-715h-176l-199 333q-12 21 -27 51.5t-24 50.5l-9 20h-2q8 -77 8 -122v-333h-175z" />
    <glyph glyph-name="O" unicode="O" horiz-adv-x="818" 
d="M35 362q0 155 106.5 260t267.5 105t267.5 -105t106.5 -260q0 -159 -106.5 -266.5t-267.5 -107.5t-267.5 107.5t-106.5 266.5zM216 362q0 -91 56 -152.5t137 -61.5t137 61.5t56 152.5q0 87 -56 146t-137 59t-137 -59t-56 -146z" />
    <glyph glyph-name="P" unicode="P" horiz-adv-x="634" 
d="M84 0v715h297q104 0 168.5 -69t64.5 -177q0 -109 -64.5 -178.5t-168.5 -69.5h-122v-221h-175zM259 371h86q44 0 67.5 27t23.5 71t-23 70t-65 26h-89v-194z" />
    <glyph glyph-name="Q" unicode="Q" horiz-adv-x="828" 
d="M35 362q0 155 106.5 260t267.5 105t267.5 -105t106.5 -260q0 -111 -71 -212l75 -61l-99 -111l-73 69q-90 -59 -206 -59q-161 0 -267.5 107.5t-106.5 266.5zM216 362q0 -91 56 -152.5t137 -61.5q46 0 78 16l-73 64l98 111l71 -69q19 44 19 92q0 87 -56 146t-137 59
t-137 -59t-56 -146z" />
    <glyph glyph-name="R" unicode="R" horiz-adv-x="685" 
d="M84 0v715h249q95 0 139 -17q62 -24 97 -77.5t35 -130.5q0 -60 -28 -114.5t-79 -80.5v-2q10 -13 27 -43l139 -250h-195l-127 241h-82v-241h-175zM259 391h76q43 0 67 23t24 65q0 44 -23 65t-85 21h-59v-174z" />
    <glyph glyph-name="S" unicode="S" horiz-adv-x="580" 
d="M31 90l92 133q9 -8 25 -20.5t61 -33t85 -20.5q31 0 53 13.5t22 43.5q0 19 -24 36.5t-59.5 30.5t-77.5 33.5t-77.5 44t-59.5 64.5t-24 93q0 97 72.5 158t180.5 61q68 0 125.5 -20.5t80.5 -40.5l24 -20l-74 -143q-8 7 -22.5 17.5t-56 28t-79.5 17.5q-31 0 -53.5 -14
t-22.5 -42q0 -24 33 -43t80.5 -37t95 -42t80.5 -69.5t33 -108.5q0 -93 -68 -157.5t-184 -64.5q-47 0 -91 10.5t-73.5 25.5t-52.5 30t-33 26z" />
    <glyph glyph-name="T" unicode="T" horiz-adv-x="617" 
d="M221 0v565h-217v150h609v-150h-217v-565h-175z" />
    <glyph glyph-name="U" unicode="U" horiz-adv-x="746" 
d="M74 263v452h175v-452q0 -55 33.5 -85t90.5 -30t90.5 30t33.5 85v452h175v-452q0 -122 -82 -198.5t-216 -76.5q-135 0 -217.5 76.5t-82.5 198.5z" />
    <glyph glyph-name="V" unicode="V" horiz-adv-x="675" 
d="M247 0l-253 715h190l126 -407q6 -20 13 -49t11 -47l3 -19h2q13 70 27 115l128 407h187l-252 -715h-182z" />
    <glyph glyph-name="W" unicode="W" horiz-adv-x="998" 
d="M195 0l-174 715h184l90 -447q4 -20 6.5 -38.5t2.5 -27.5v-9h2q1 31 12 75l110 447h141l107 -447q5 -20 8 -38.5t4 -27.5v-9h2q0 31 9 75l98 447h181l-181 -715h-195l-90 361l-14 84h-2q-3 -38 -14 -84l-90 -361h-197z" />
    <glyph glyph-name="X" unicode="X" horiz-adv-x="675" 
d="M16 0l217 355l-218 360h199l78 -147l44 -92h2q19 46 44 92l79 147h199l-219 -360l218 -355h-195l-82 150l-44 89h-2q-19 -44 -44 -89l-82 -150h-194z" />
    <glyph glyph-name="Y" unicode="Y" horiz-adv-x="639" 
d="M232 0v293l-236 422h199l81 -172l43 -103h2q20 54 43 103l80 172h199l-236 -422v-293h-175z" />
    <glyph glyph-name="Z" unicode="Z" horiz-adv-x="638" 
d="M38 0v110l276 391q14 20 27.5 36t20.5 23l7 6v2q-23 -3 -55 -3h-263v150h540v-108l-277 -393q-14 -20 -27.5 -36t-20.5 -22l-7 -7v-2q23 3 55 3h282v-150h-558z" />
    <glyph glyph-name="bracketleft" unicode="[" horiz-adv-x="370" 
d="M85 -95v845h246v-120h-102v-605h102v-120h-246z" />
    <glyph glyph-name="backslash" unicode="\" horiz-adv-x="434" 
d="M269 -42l-256 792h144l256 -792h-144z" />
    <glyph glyph-name="bracketright" unicode="]" horiz-adv-x="370" 
d="M39 25h102v605h-102v120h246v-845h-246v120z" />
    <glyph glyph-name="asciicircum" unicode="^" horiz-adv-x="630" 
d="M58 241l203 474h107l203 -474h-145l-112 300l-111 -300h-145z" />
    <glyph glyph-name="underscore" unicode="_" horiz-adv-x="622" 
d="M13 0h596v-130h-596v130z" />
    <glyph glyph-name="grave" unicode="`" horiz-adv-x="484" 
d="M234 761l-118 150h171l81 -150h-134z" />
    <glyph glyph-name="a" unicode="a" horiz-adv-x="560" 
d="M25 154q0 52 34 88.5t87.5 52t95.5 21t82 5.5h7v9q0 57 -76 57q-29 0 -63.5 -12.5t-55.5 -24.5l-20 -12l-60 122q10 8 28.5 19t75 29.5t112.5 18.5q109 0 170.5 -56t61.5 -154v-317h-158v31l2 32h-2q-2 -3 -5 -8t-15.5 -18t-27.5 -23t-41.5 -18t-56.5 -8
q-74 0 -124.5 45.5t-50.5 120.5zM199 163q0 -19 12.5 -31t36.5 -12q33 0 59 29t26 62v11h-16q-47 0 -82.5 -14.5t-35.5 -44.5z" />
    <glyph glyph-name="b" unicode="b" horiz-adv-x="637" 
d="M64 0v715h173v-199l-2 -44h2q5 6 15.5 15t47 24.5t76.5 15.5q105 0 168.5 -74.5t63.5 -195.5t-68 -195t-172 -74q-42 0 -77.5 14.5t-49.5 29.5l-14 14h-2q1 -13 1 -29v-17h-162zM232 254q0 -50 26.5 -86.5t74.5 -36.5q43 0 72 33t29 90t-28 92t-73 35q-43 0 -72 -32
t-29 -95z" />
    <glyph glyph-name="c" unicode="c" horiz-adv-x="551" 
d="M26 258q0 110 77.5 189.5t209.5 79.5q39 0 74.5 -8t58.5 -19.5t40 -23t24 -19.5l8 -8l-73 -116q-6 6 -16 14t-41.5 22t-63.5 14q-58 0 -90.5 -36.5t-32.5 -86.5q0 -51 34 -89.5t95 -38.5q32 0 67 15.5t55 30.5l19 16l63 -121l-9 -9t-27 -20.5t-45 -26t-62 -20.5t-78 -9
q-132 0 -209.5 79t-77.5 191z" />
    <glyph glyph-name="d" unicode="d" horiz-adv-x="637" 
d="M29 258q0 121 65.5 195t169.5 74q46 0 80 -10.5t44 -20.5l11 -10h2q-1 10 -1 23v206h173v-715h-162v34l1 29h-2l-5.5 -8t-16.5 -18t-28.5 -23t-42 -18t-56.5 -8q-105 0 -168.5 74.5t-63.5 195.5zM203 258q0 -57 28 -92t73 -35q43 0 72 32t29 95q0 50 -26.5 86.5
t-74.5 36.5q-43 0 -72 -33t-29 -90z" />
    <glyph glyph-name="e" unicode="e" horiz-adv-x="563" 
d="M27 258q0 116 73 192.5t195 76.5q111 0 174.5 -69.5t63.5 -179.5l-4 -54h-325q9 -45 42.5 -68.5t77.5 -23.5q33 0 68.5 13t54.5 26l19 13l64 -121q-9 -8 -26.5 -20.5t-75 -33.5t-118.5 -21q-131 0 -207 80t-76 190zM208 323h151q0 30 -19 52t-49 22q-65 0 -83 -74z" />
    <glyph glyph-name="f" unicode="f" horiz-adv-x="384" 
d="M96 0v371h-63v135h63v21q0 48 17 84.5t41.5 56.5t59 32t62 15.5t56.5 3.5l52 -3v-146q-12 2 -28 2q-87 0 -87 -50v-16h95v-135h-95v-371h-173z" />
    <glyph glyph-name="g" unicode="g" horiz-adv-x="629" 
d="M128 -33q64 -33 145 -33q119 0 119 99v17l1 19h-2q-45 -54 -129 -54q-110 0 -171 76t-61 183q0 106 60 179.5t171 73.5q42 0 77 -12.5t49 -24.5l14 -13h3q-1 6 -1 12v26h162v-468q0 -68 -25 -119t-68 -80.5t-92.5 -43.5t-105.5 -14q-107 0 -195 46zM303 159
q40 0 66.5 25.5t26.5 87.5q0 111 -100 111q-44 0 -68 -28.5t-24 -74.5q0 -52 25 -86.5t74 -34.5z" />
    <glyph glyph-name="h" unicode="h" horiz-adv-x="636" 
d="M64 0v715h173v-226l-2 -44h2q22 38 64 60t93 22q185 0 185 -193v-334h-173v302q0 68 -57 68q-78 0 -103 -76q-9 -26 -9 -66v-228h-173z" />
    <glyph glyph-name="i" unicode="i" horiz-adv-x="301" 
d="M66 580v135h169v-135h-169zM64 0v515h173v-515h-173z" />
    <glyph glyph-name="j" unicode="j" horiz-adv-x="301" 
d="M66 580v135h169v-135h-169zM64 515h173v-528q0 -49 -18 -86.5t-43.5 -57.5t-61 -32t-63 -15.5t-56.5 -3.5l-46 3v144q9 -1 22 -1q93 0 93 66v511z" />
    <glyph glyph-name="k" unicode="k" horiz-adv-x="599" 
d="M64 0v715h173v-370h49l102 170h188l-151 -234v-2l172 -279h-197l-109 200h-54v-200h-173z" />
    <glyph glyph-name="l" unicode="l" horiz-adv-x="323" 
d="M57 190v525h173v-502q0 -38 9.5 -52t38.5 -14l21 1v-150q-24 -3 -52 -3q-40 0 -69.5 6.5t-59 25.5t-45.5 60t-16 103z" />
    <glyph glyph-name="m" unicode="m" horiz-adv-x="918" 
d="M64 0v515h166v-45l-2 -32h2q59 89 153 89q103 0 144 -87h2q22 36 66.5 61.5t98.5 25.5q76 0 121.5 -46t45.5 -147v-334h-173v305q0 65 -40 65q-76 0 -95 -97q-4 -18 -4 -60v-213h-173v305q0 65 -40 65q-74 0 -94 -93q-5 -24 -5 -64v-213h-173z" />
    <glyph glyph-name="n" unicode="n" horiz-adv-x="636" 
d="M64 0v515h166v-45l-2 -32h2q53 89 164 89q185 0 185 -193v-334h-173v302q0 68 -57 68q-77 0 -102 -74q-10 -29 -10 -68v-228h-173z" />
    <glyph glyph-name="o" unicode="o" horiz-adv-x="636" 
d="M26 256q0 119 84 195t207 76q124 0 208.5 -75.5t84.5 -195.5q0 -119 -84 -193.5t-208 -74.5t-208 74.5t-84 193.5zM201 256q0 -56 34 -90t83 -34t83 34t34 90q0 57 -34 92t-83 35t-83 -35t-34 -92z" />
    <glyph glyph-name="p" unicode="p" horiz-adv-x="637" 
d="M64 -200v715h156v-26l-2 -33h2q2 3 6 7.5t18 17t30 22t43.5 17t58.5 7.5q105 0 168.5 -74.5t63.5 -195.5t-68 -195t-172 -74q-37 0 -70 12.5t-47 24.5l-14 12h-2q2 -18 2 -44v-193h-173zM232 254q0 -50 26.5 -86.5t74.5 -36.5q43 0 72 33t29 90t-28 92t-73 35
q-43 0 -72 -32t-29 -95z" />
    <glyph glyph-name="q" unicode="q" horiz-adv-x="637" 
d="M29 258q0 121 65.5 195t169.5 74q46 0 83 -14t51 -27l13 -14h2q-2 11 -2 28v15h162v-715h-173v202l2 44h-2q-5 -6 -15 -16t-46 -26t-78 -16q-105 0 -168.5 74.5t-63.5 195.5zM203 258q0 -57 28 -92t73 -35q43 0 72 32t29 95q0 50 -26.5 86.5t-74.5 36.5q-43 0 -72 -33
t-29 -90z" />
    <glyph glyph-name="r" unicode="r" horiz-adv-x="430" 
d="M64 0v515h166v-87l-2 -32h2q17 54 62.5 91t101.5 37l20 -2v-170q-14 3 -35 3q-104 0 -133 -90q-9 -29 -9 -70v-195h-173z" />
    <glyph glyph-name="s" unicode="s" horiz-adv-x="471" 
d="M24 64l74 116q6 -6 17.5 -14.5t46 -23t67.5 -14.5q51 0 51 24q0 12 -25 23.5t-60 25t-70.5 32.5t-60.5 54.5t-25 82.5q0 71 60.5 114t151.5 43q34 0 65 -6t51 -14.5t35.5 -17.5t22.5 -15l7 -6l-59 -123q-6 5 -16 12t-42 18.5t-64 11.5q-51 0 -51 -25q0 -10 25 -20.5
t60 -23.5t70.5 -31.5t60.5 -54t25 -81.5q0 -69 -57.5 -116t-153.5 -47q-57 0 -108.5 19t-74.5 38z" />
    <glyph glyph-name="t" unicode="t" horiz-adv-x="415" 
d="M90 190v181h-66v135h71v148h168v-148h108v-135h-108v-158q0 -66 92 -66l23 1v-150q-19 -3 -47 -3q-24 0 -46.5 2.5t-52 9.5t-53 21t-44.5 34.5t-33 53.5t-12 74z" />
    <glyph glyph-name="u" unicode="u" horiz-adv-x="631" 
d="M57 181v334h173v-302q0 -68 55 -68q53 0 81 40.5t28 101.5v228h173v-515h-166v45l2 32h-2q-21 -41 -65 -65t-96 -24q-84 0 -133.5 45.5t-49.5 147.5z" />
    <glyph glyph-name="v" unicode="v" horiz-adv-x="562" 
d="M176 0l-178 515h182l80 -274l19 -89h2q9 55 19 89l79 274h183l-175 -515h-211z" />
    <glyph glyph-name="w" unicode="w" horiz-adv-x="840" 
d="M157 0l-144 515h182l64 -304l6 -54h2q2 26 9 54l71 304h148l71 -304l8 -54h2q1 26 7 54l64 304h180l-144 -515h-193l-58 238l-10 55h-2q-3 -27 -10 -55l-58 -238h-195z" />
    <glyph glyph-name="x" unicode="x" horiz-adv-x="558" 
d="M15 0l162 255l-166 260h195l56 -115l16 -34h2l16 34l56 115h195l-165 -260l162 -255h-190l-62 116l-12 26h-2q-7 -17 -12 -26l-61 -116h-190z" />
    <glyph glyph-name="y" unicode="y" horiz-adv-x="546" 
d="M1 -174l55 127q28 -19 53 -19q62 0 83 52l10 24l-219 505h196l76 -237l19 -80h2q10 49 17 77l65 240h189l-211 -570q-30 -80 -88.5 -117.5t-126.5 -37.5q-30 0 -60 9t-45 18z" />
    <glyph glyph-name="z" unicode="z" horiz-adv-x="543" 
d="M34 0v86l189 237l23 26t16 17l6 4v2q-13 -2 -45 -2h-181v145h460v-87l-188 -237q-11 -14 -22.5 -25.5t-17.5 -16.5l-6 -5v-2q13 3 46 3h193v-145h-473z" />
    <glyph glyph-name="braceleft" unicode="{" horiz-adv-x="405" 
d="M124 62v98q0 27 -9 46.5t-21 28.5t-24.5 14.5t-21.5 6.5h-9v150q3 0 9 0.5t20.5 6t26 14.5t20.5 29.5t9 48.5v88q0 50 20.5 85t54 50.5t63 21t61.5 5.5l43 -2v-124q-11 2 -25 2q-73 0 -73 -54v-117q0 -29 -8.5 -52.5t-21 -36.5t-25 -22.5t-21.5 -12.5l-8 -3v-2l9 -3
t20.5 -11.5t25.5 -22t20 -36.5t9 -53v-127q0 -54 73 -54l25 2v-124q-18 -2 -43 -2q-32 0 -61.5 5.5t-63 21t-54 50.5t-20.5 85z" />
    <glyph glyph-name="bar" unicode="|" horiz-adv-x="310" 
d="M83 -165v967h144v-967h-144z" />
    <glyph glyph-name="braceright" unicode="}" horiz-adv-x="405" 
d="M39 26q11 -2 25 -2q73 0 73 54v127q0 29 8.5 53t21 37t25 21.5t20.5 11.5l9 3v2q-3 1 -9 3.5t-20.5 12t-25.5 22.5t-20 36.5t-9 52.5v117q0 54 -73 54l-25 -2v124q18 2 43 2q32 0 61.5 -5.5t63 -21t54 -50.5t20.5 -85v-88q0 -44 21.5 -68.5t42.5 -27.5l21 -3v-150
q-3 0 -9 -0.5t-20.5 -6t-26 -14.5t-20.5 -28.5t-9 -46.5v-98q0 -50 -20.5 -85t-54 -50.5t-63 -21t-61.5 -5.5l-43 2v124z" />
    <glyph glyph-name="asciitilde" unicode="~" horiz-adv-x="625" 
d="M47 191q0 203 174 203q31 0 58.5 -12.5t43 -27.5t34.5 -27.5t36 -12.5q25 0 40 19.5t15 56.5h133q0 -203 -173 -203q-31 0 -58.5 12.5t-43 27.5t-35 27.5t-36.5 12.5q-24 0 -39 -19.5t-15 -56.5h-134z" />
    <glyph glyph-name="uni00A0" unicode="&#xa0;" horiz-adv-x="229" 
 />
    <glyph glyph-name="exclamdown" unicode="&#xa1;" horiz-adv-x="320" 
d="M81 364v150h158v-150h-158zM70 -200l16 493h148l16 -493h-180z" />
    <glyph glyph-name="cent" unicode="&#xa2;" horiz-adv-x="588" 
d="M250 -12v87q-91 21 -152 99.5t-61 183.5q0 104 61.5 183t151.5 100v85h110v-85q68 -15 119.5 -60.5t73.5 -111.5l-154 -60q-11 32 -34.5 53.5t-55.5 21.5q-37 0 -67.5 -36t-30.5 -90q0 -60 28.5 -93t69.5 -33q32 0 56 21.5t34 53.5l154 -60q-21 -60 -71.5 -111
t-121.5 -61v-87h-110z" />
    <glyph glyph-name="sterling" unicode="&#xa3;" horiz-adv-x="608" 
d="M59 299v112h43v100q0 95 69 155.5t175 60.5q52 0 101 -20.5t72 -41.5l23 -21l-97 -118q-46 44 -94 44q-29 0 -49.5 -17.5t-20.5 -46.5v-95h165v-112h-165v-149h290v-150h-524v150h55v149h-43z" />
    <glyph glyph-name="yen" unicode="&#xa5;" horiz-adv-x="644" 
d="M69 340v96h92l-137 279h201l53 -143l43 -133h2q19 67 43 133l53 143h201l-138 -279h93v-96h-140l-24 -49v-28h164v-96h-164v-167h-179v167h-163v96h163v28l-24 49h-139z" />
    <glyph glyph-name="section" unicode="&#xa7;" horiz-adv-x="525" 
d="M139 179l-76 273q-10 37 -10 75q0 89 59.5 144.5t171.5 55.5q59 0 111 -19.5t74 -38.5l22 -19l-74 -108q-6 5 -17 13t-45.5 21t-68.5 13q-98 0 -98 -83q0 -30 10 -67l72 -260h-131zM30 15l69 115q7 -6 19 -15t47.5 -24.5t70.5 -15.5q98 0 98 94q0 32 -13 77l-68 240h131
l74 -273q10 -37 10 -75q0 -89 -59.5 -144.5t-171.5 -55.5q-37 0 -72 8t-58.5 19t-41.5 22.5t-27 19.5z" />
    <glyph glyph-name="dieresis" unicode="&#xa8;" horiz-adv-x="485" 
d="M284 771v140h126v-140h-126zM75 771v140h126v-140h-126z" />
    <glyph glyph-name="copyright" unicode="&#xa9;" horiz-adv-x="800" 
d="M39 358q0 153 105 260.5t254 107.5q151 0 257 -107.5t106 -260.5t-106 -261.5t-257 -108.5q-148 0 -253.5 108.5t-105.5 261.5zM152 358q0 -112 71 -189.5t175 -77.5q106 0 178.5 77.5t72.5 189.5q0 111 -72.5 188t-178.5 77q-104 0 -175 -77t-71 -188zM228 355
q0 78 51 132.5t121 54.5q36 0 66.5 -12t47 -28.5t28.5 -33.5t16 -29l4 -12l-100 -39l-5.5 13.5t-18 22t-34.5 13.5q-23 0 -41 -23t-18 -59q0 -39 16.5 -60.5t42.5 -21.5q20 0 34.5 12.5t19.5 24.5l4 12l100 -39q-1 -5 -4 -12.5t-15.5 -27.5t-29 -35t-47 -27.5t-66.5 -12.5
q-70 0 -121 54.5t-51 132.5z" />
    <glyph glyph-name="ordfeminine" unicode="&#xaa;" horiz-adv-x="413" 
d="M156 383q-41 0 -73 28.5t-32 73.5q0 109 181 109h5v8q0 36 -47 36q-17 0 -37 -7t-31 -13l-12 -7l-38 75l16.5 10.5t46 17.5t75.5 11q70 0 107.5 -36t37.5 -99v-200h-108v39h-2q-3 -5 -8.5 -12.5t-28.5 -20.5t-52 -13zM191 472q18 0 31.5 14t13.5 31v5h-10q-58 0 -58 -30
q0 -20 23 -20zM54 268v85h305v-85h-305z" />
    <glyph glyph-name="guillemotleft" unicode="&#xab;" horiz-adv-x="643" 
d="M288 282l164 206h158l-164 -206l164 -205h-158zM192 77l-164 205l164 206h158l-164 -206l164 -205h-158z" />
    <glyph glyph-name="logicalnot" unicode="&#xac;" horiz-adv-x="602" 
d="M36 337v130h506v-335h-135v205h-371z" />
    <glyph glyph-name="uni00AD" unicode="&#xad;" horiz-adv-x="430" 
d="M58 212v150h314v-150h-314z" />
    <glyph glyph-name="registered" unicode="&#xae;" horiz-adv-x="800" 
d="M39 358q0 153 105 260.5t254 107.5q151 0 257 -107.5t106 -260.5t-106 -261.5t-257 -108.5q-148 0 -253.5 108.5t-105.5 261.5zM152 358q0 -112 71 -189.5t175 -77.5q106 0 178.5 77.5t72.5 189.5q0 111 -72.5 188t-178.5 77q-104 0 -175 -77t-71 -188zM268 187v347h163
q56 0 89 -31t33 -84q0 -37 -19.5 -60.5t-38.5 -28.5v-2q4 -3 13 -20l63 -121h-118l-49 118h-28v-118h-108zM376 377h27q40 0 40 42q0 41 -38 41h-29v-83z" />
    <glyph glyph-name="macron" unicode="&#xaf;" horiz-adv-x="485" 
d="M105 782v112h275v-112h-275z" />
    <glyph glyph-name="degree" unicode="&#xb0;" horiz-adv-x="418" 
d="M209 385q-76 0 -128.5 50t-52.5 122q0 71 53 122t128 51t128 -51t53 -122q0 -72 -53 -122t-128 -50zM209 505q23 0 39 15.5t16 37.5q0 21 -16.5 36.5t-38.5 15.5t-38.5 -15.5t-16.5 -36.5q0 -22 16 -37.5t39 -15.5z" />
    <glyph glyph-name="plusminus" unicode="&#xb1;" horiz-adv-x="626" 
d="M40 222v130h205v223h136v-223h205v-130h-205v-222h-136v222h-205zM50 -70h526v-130h-526v130z" />
    <glyph glyph-name="twosuperior" unicode="&#xb2;" 
d="M44 423q-5 28 -5 49q0 50 20.5 88t49.5 59.5t58.5 38t50 33t20.5 34.5q0 16 -13 25t-32 9q-17 0 -35 -11.5t-27 -22.5l-9 -11l-83 71q2 4 6 10t19 21t32 27t45.5 21.5t60.5 9.5q64 0 113.5 -36.5t49.5 -106.5q0 -47 -27.5 -83.5t-61 -53t-63.5 -33.5t-33 -30h191v-108
h-327z" />
    <glyph glyph-name="threesuperior" unicode="&#xb3;" 
d="M191 413q-48 0 -88 17t-56 34l-16 17l61 90q4 -5 11 -12t31 -19t49 -12t39.5 12t14.5 30t-17.5 27t-44.5 9h-37l-24 57l62 69l24 23v2q-21 -2 -34 -2h-110v109h294v-79l-83 -91q97 -24 97 -126q0 -62 -46 -108.5t-127 -46.5z" />
    <glyph glyph-name="acute" unicode="&#xb4;" horiz-adv-x="484" 
d="M116 761l81 150h171l-118 -150h-134z" />
    <glyph glyph-name="mu" unicode="&#xb5;" horiz-adv-x="650" 
d="M70 -200v715h173v-302q0 -68 55 -68q53 0 81 40.5t28 101.5v228h173v-515h-166v50l2 27h-3q-2 -4 -5.5 -10t-17 -21t-30 -27t-45.5 -21.5t-62 -9.5l-42 4h-2q8 -48 8 -88v-104h-147z" />
    <glyph glyph-name="mu" unicode="&#x3bc;" horiz-adv-x="650" 
d="M70 -200v715h173v-302q0 -68 55 -68q53 0 81 40.5t28 101.5v228h173v-515h-166v50l2 27h-3q-2 -4 -5.5 -10t-17 -21t-30 -27t-45.5 -21.5t-62 -9.5l-42 4h-2q8 -48 8 -88v-104h-147z" />
    <glyph glyph-name="paragraph" unicode="&#xb6;" horiz-adv-x="654" 
d="M262 -50v291q-97 0 -165 69t-68 169t68 168t165 68h357v-150h-237v-615h-120zM444 -50v565h120v-565h-120z" />
    <glyph glyph-name="periodcentered" unicode="&#xb7;" horiz-adv-x="292" 
d="M67 213v164h158v-164h-158z" />
    <glyph glyph-name="cedilla" unicode="&#xb8;" horiz-adv-x="484" 
d="M199 29l72 -17v-7l-10 -41q75 -8 75 -80q0 -50 -34 -72t-83 -22q-17 0 -34.5 2t-26.5 4l-10 3v87q23 -10 45 -10q38 0 38 23q0 21 -41 21l-26 -2z" />
    <glyph glyph-name="onesuperior" unicode="&#xb9;" 
d="M62 423v108h89v143l3 32h-2q-5 -10 -11 -15l-24 -22l-72 79l124 116h108v-333h90v-108h-305z" />
    <glyph glyph-name="ordmasculine" unicode="&#xba;" horiz-adv-x="455" 
d="M227 385q-77 0 -129.5 47.5t-52.5 122.5t52.5 122.5t128.5 47.5q78 0 131 -47.5t53 -122.5t-53 -122.5t-130 -47.5zM227 488q27 0 45 18t18 49q0 30 -18.5 49t-44.5 19t-44.5 -19t-18.5 -49q0 -31 18 -49t45 -18zM58 268v85h338v-85h-338z" />
    <glyph glyph-name="guillemotright" unicode="&#xbb;" horiz-adv-x="643" 
d="M293 77l164 205l-164 206h158l164 -206l-164 -205h-158zM33 77l164 205l-164 206h158l164 -206l-164 -205h-158z" />
    <glyph glyph-name="onequarter" unicode="&#xbc;" horiz-adv-x="1007" 
d="M805 0v87h-197v84l171 270h150v-247h53v-107h-53v-87h-124zM727 194h78v90l4 50h-2q-9 -27 -21 -46l-59 -92v-2zM397 0h-119l336 715h119zM56 274v108h89v143l3 32h-2q-5 -10 -11 -15l-24 -22l-72 79l124 116h108v-333h90v-108h-305z" />
    <glyph glyph-name="onehalf" unicode="&#xbd;" horiz-adv-x="1018" 
d="M395 0h-119l336 715h119zM50 274v108h89v143l3 32h-2q-5 -10 -11 -15l-24 -22l-72 79l124 116h108v-333h90v-108h-305zM639 0q-5 28 -5 49q0 50 20.5 88t50 59.5t58.5 38t49.5 33t20.5 34.5q0 16 -13 25t-32 9q-17 0 -35 -11t-27 -23l-9 -11l-83 71q2 4 6 10t19 21t32 27
t45.5 21.5t60.5 9.5q64 0 113.5 -36.5t49.5 -106.5q0 -47 -27.5 -83.5t-61 -53t-63.5 -33.5t-33 -30h191v-108h-327z" />
    <glyph glyph-name="threequarters" unicode="&#xbe;" horiz-adv-x="1014" 
d="M186 264q-48 0 -88 17t-56 34l-16 17l61 90q4 -5 11 -12t31 -19t49 -12t39.5 12t14.5 30t-17.5 27t-44.5 9h-37l-24 57l62 69l24 23v2q-21 -2 -34 -2h-110v109h294v-79l-83 -91q97 -24 97 -126q0 -62 -46 -108.5t-127 -46.5zM392 0h-119l336 715h119zM800 0v87h-197v84
l171 270h150v-247h53v-107h-53v-87h-124zM722 194h78v90l4 50h-2q-9 -27 -21 -46l-59 -92v-2z" />
    <glyph glyph-name="questiondown" unicode="&#xbf;" horiz-adv-x="468" 
d="M188 365v150h158v-150h-158zM13 -14q0 45 17.5 82.5t42.5 61t50.5 44t43 43t17.5 46.5v31h166v-45q0 -37 -16 -68.5t-39 -52t-46.5 -39t-39.5 -39.5t-16 -44q0 -25 21 -42t50 -17q21 0 45 10.5t37 21.5l13 11l96 -117l-9 -9t-26 -20t-42.5 -25t-58 -20t-73.5 -9
q-92 0 -162.5 52.5t-70.5 143.5z" />
    <glyph glyph-name="Agrave" unicode="&#xc0;" horiz-adv-x="662" 
d="M486 0l-44 150h-223l-43 -150h-180l243 715h184l243 -715h-180zM332 552h-2q-16 -78 -29 -123l-41 -139h141l-40 139zM269 761l-118 150h171l81 -150h-134z" />
    <glyph glyph-name="Aacute" unicode="&#xc1;" horiz-adv-x="662" 
d="M486 0l-44 150h-223l-43 -150h-180l243 715h184l243 -715h-180zM332 552h-2q-16 -78 -29 -123l-41 -139h141l-40 139zM259 761l81 150h171l-118 -150h-134z" />
    <glyph glyph-name="Acircumflex" unicode="&#xc2;" horiz-adv-x="662" 
d="M486 0l-44 150h-223l-43 -150h-180l243 715h184l243 -715h-180zM332 552h-2q-16 -78 -29 -123l-41 -139h141l-40 139zM148 761l99 150h168l99 -150h-135l-47 82h-2l-47 -82h-135z" />
    <glyph glyph-name="Atilde" unicode="&#xc3;" horiz-adv-x="662" 
d="M486 0l-44 150h-223l-43 -150h-180l243 715h184l243 -715h-180zM332 552h-2q-16 -78 -29 -123l-41 -139h141l-40 139zM130 761q0 153 128 153q29 0 52 -15t41 -30t33 -15q37 0 37 57h112q0 -153 -128 -153q-29 0 -52 15t-41 30t-33 15q-37 0 -37 -57h-112z" />
    <glyph glyph-name="Adieresis" unicode="&#xc4;" horiz-adv-x="662" 
d="M486 0l-44 150h-223l-43 -150h-180l243 715h184l243 -715h-180zM332 552h-2q-16 -78 -29 -123l-41 -139h141l-40 139zM373 771v140h126v-140h-126zM164 771v140h126v-140h-126z" />
    <glyph glyph-name="Aring" unicode="&#xc5;" horiz-adv-x="662" 
d="M486 0l-44 150h-223l-43 -150h-180l243 715h184l243 -715h-180zM332 552h-2q-16 -78 -29 -123l-41 -139h141l-40 139zM331 747q-44 0 -76.5 22t-32.5 63t32.5 63.5t76.5 22.5t77 -22.5t33 -63.5t-33 -63t-77 -22zM331 797q16 0 25.5 9.5t9.5 25.5t-9.5 26t-25.5 10
q-15 0 -24.5 -10t-9.5 -26t9 -25.5t25 -9.5z" />
    <glyph glyph-name="AE" unicode="&#xc6;" horiz-adv-x="955" 
d="M-10 0l299 715h610v-150h-273v-130h218v-150h-218v-135h286v-150h-461v288h-168l-111 -288h-182zM390 565l-53 -137h114v137h-61z" />
    <glyph glyph-name="Ccedilla" unicode="&#xc7;" horiz-adv-x="722" 
d="M37 359q0 157 107 262.5t268 105.5q50 0 95.5 -10.5t75.5 -25.5t53 -29.5t34 -25.5l10 -10l-81 -132q-9 8 -25 20t-63 32.5t-91 20.5q-97 0 -149.5 -60t-52.5 -144q0 -86 54 -150.5t148 -64.5q48 0 95.5 22t70.5 44l24 22l90 -128l-11 -11.5t-32.5 -27t-53.5 -35t-73 -29
t-93 -16.5l-6 -25q75 -8 75 -80q0 -50 -34 -72t-83 -22q-17 0 -34.5 2t-26.5 4l-10 3v87q23 -10 45 -10q38 0 38 23q0 21 -41 21l-26 -2l23 73q-145 18 -232.5 120t-87.5 248z" />
    <glyph glyph-name="Egrave" unicode="&#xc8;" horiz-adv-x="588" 
d="M84 0v715h448v-150h-273v-130h218v-150h-218v-135h287v-150h-462zM254 761l-118 150h171l81 -150h-134z" />
    <glyph glyph-name="Eacute" unicode="&#xc9;" horiz-adv-x="588" 
d="M84 0v715h448v-150h-273v-130h218v-150h-218v-135h287v-150h-462zM244 761l81 150h171l-118 -150h-134z" />
    <glyph glyph-name="Ecircumflex" unicode="&#xca;" horiz-adv-x="588" 
d="M84 0v715h448v-150h-273v-130h218v-150h-218v-135h287v-150h-462zM133 761l99 150h168l99 -150h-135l-47 82h-2l-47 -82h-135z" />
    <glyph glyph-name="Edieresis" unicode="&#xcb;" horiz-adv-x="588" 
d="M84 0v715h448v-150h-273v-130h218v-150h-218v-135h287v-150h-462zM358 771v140h126v-140h-126zM149 771v140h126v-140h-126z" />
    <glyph glyph-name="Igrave" unicode="&#xcc;" horiz-adv-x="343" 
d="M84 0v715h175v-715h-175zM110 761l-118 150h171l81 -150h-134z" />
    <glyph glyph-name="Iacute" unicode="&#xcd;" horiz-adv-x="343" 
d="M84 0v715h175v-715h-175zM100 761l81 150h171l-118 -150h-134z" />
    <glyph glyph-name="Icircumflex" unicode="&#xce;" horiz-adv-x="343" 
d="M84 0v715h175v-715h-175zM-11 761l99 150h168l99 -150h-135l-47 82h-2l-47 -82h-135z" />
    <glyph glyph-name="Idieresis" unicode="&#xcf;" horiz-adv-x="343" 
d="M84 0v715h175v-715h-175zM214 771v140h126v-140h-126zM5 771v140h126v-140h-126z" />
    <glyph glyph-name="Eth" unicode="&#xd0;" horiz-adv-x="767" 
d="M48 284v140h57v291h254q170 0 269.5 -94.5t99.5 -261.5q0 -168 -99.5 -263.5t-269.5 -95.5h-254v284h-57zM280 150h72q92 0 143.5 54t51.5 155q0 100 -52 153t-143 53h-72v-141h104v-140h-104v-134z" />
    <glyph glyph-name="Ntilde" unicode="&#xd1;" horiz-adv-x="772" 
d="M84 0v715h177l198 -334q12 -21 27 -51.5t24 -50.5l9 -20h2q-8 77 -8 122v334h175v-715h-176l-199 333q-12 21 -27 51.5t-24 50.5l-9 20h-2q8 -77 8 -122v-333h-175zM185 761q0 153 128 153q29 0 52 -15t41 -30t33 -15q37 0 37 57h112q0 -153 -128 -153q-29 0 -52 15
t-41 30t-33 15q-37 0 -37 -57h-112z" />
    <glyph glyph-name="Ograve" unicode="&#xd2;" horiz-adv-x="818" 
d="M35 362q0 155 106.5 260t267.5 105t267.5 -105t106.5 -260q0 -159 -106.5 -266.5t-267.5 -107.5t-267.5 107.5t-106.5 266.5zM216 362q0 -91 56 -152.5t137 -61.5t137 61.5t56 152.5q0 87 -56 146t-137 59t-137 -59t-56 -146zM347 761l-118 150h171l81 -150h-134z" />
    <glyph glyph-name="Oacute" unicode="&#xd3;" horiz-adv-x="818" 
d="M35 362q0 155 106.5 260t267.5 105t267.5 -105t106.5 -260q0 -159 -106.5 -266.5t-267.5 -107.5t-267.5 107.5t-106.5 266.5zM216 362q0 -91 56 -152.5t137 -61.5t137 61.5t56 152.5q0 87 -56 146t-137 59t-137 -59t-56 -146zM337 761l81 150h171l-118 -150h-134z" />
    <glyph glyph-name="Ocircumflex" unicode="&#xd4;" horiz-adv-x="818" 
d="M35 362q0 155 106.5 260t267.5 105t267.5 -105t106.5 -260q0 -159 -106.5 -266.5t-267.5 -107.5t-267.5 107.5t-106.5 266.5zM216 362q0 -91 56 -152.5t137 -61.5t137 61.5t56 152.5q0 87 -56 146t-137 59t-137 -59t-56 -146zM226 761l99 150h168l99 -150h-135l-47 82h-2
l-47 -82h-135z" />
    <glyph glyph-name="Otilde" unicode="&#xd5;" horiz-adv-x="818" 
d="M35 362q0 155 106.5 260t267.5 105t267.5 -105t106.5 -260q0 -159 -106.5 -266.5t-267.5 -107.5t-267.5 107.5t-106.5 266.5zM216 362q0 -91 56 -152.5t137 -61.5t137 61.5t56 152.5q0 87 -56 146t-137 59t-137 -59t-56 -146zM208 761q0 153 128 153q29 0 52 -15t41 -30
t33 -15q37 0 37 57h112q0 -153 -128 -153q-29 0 -52 15t-41 30t-33 15q-37 0 -37 -57h-112z" />
    <glyph glyph-name="Odieresis" unicode="&#xd6;" horiz-adv-x="818" 
d="M35 362q0 155 106.5 260t267.5 105t267.5 -105t106.5 -260q0 -159 -106.5 -266.5t-267.5 -107.5t-267.5 107.5t-106.5 266.5zM216 362q0 -91 56 -152.5t137 -61.5t137 61.5t56 152.5q0 87 -56 146t-137 59t-137 -59t-56 -146zM451 771v140h126v-140h-126zM242 771v140
h126v-140h-126z" />
    <glyph glyph-name="multiply" unicode="&#xd7;" horiz-adv-x="623" 
d="M40 92l182 195l-182 196l92 92l179 -192l180 192l92 -92l-183 -196l183 -195l-92 -92l-180 192l-179 -192z" />
    <glyph glyph-name="Oslash" unicode="&#xd8;" horiz-adv-x="820" 
d="M36 362q0 155 106.5 260t267.5 105q98 0 176 -40l41 56l70 -47l-40 -55q127 -108 127 -279q0 -159 -106.5 -266.5t-267.5 -107.5q-105 0 -190 48l-46 -64l-70 48l48 66q-116 108 -116 276zM603 362q0 81 -48 137l-237 -327q43 -24 92 -24q81 0 137 61t56 153zM217 362
q0 -77 39 -132l232 320q-37 17 -78 17q-81 0 -137 -58.5t-56 -146.5z" />
    <glyph glyph-name="Ugrave" unicode="&#xd9;" horiz-adv-x="746" 
d="M74 263v452h175v-452q0 -55 33.5 -85t90.5 -30t90.5 30t33.5 85v452h175v-452q0 -122 -82 -198.5t-216 -76.5q-135 0 -217.5 76.5t-82.5 198.5zM311 761l-118 150h171l81 -150h-134z" />
    <glyph glyph-name="Uacute" unicode="&#xda;" horiz-adv-x="746" 
d="M74 263v452h175v-452q0 -55 33.5 -85t90.5 -30t90.5 30t33.5 85v452h175v-452q0 -122 -82 -198.5t-216 -76.5q-135 0 -217.5 76.5t-82.5 198.5zM301 761l81 150h171l-118 -150h-134z" />
    <glyph glyph-name="Ucircumflex" unicode="&#xdb;" horiz-adv-x="746" 
d="M74 263v452h175v-452q0 -55 33.5 -85t90.5 -30t90.5 30t33.5 85v452h175v-452q0 -122 -82 -198.5t-216 -76.5q-135 0 -217.5 76.5t-82.5 198.5zM190 761l99 150h168l99 -150h-135l-47 82h-2l-47 -82h-135z" />
    <glyph glyph-name="Udieresis" unicode="&#xdc;" horiz-adv-x="746" 
d="M74 263v452h175v-452q0 -55 33.5 -85t90.5 -30t90.5 30t33.5 85v452h175v-452q0 -122 -82 -198.5t-216 -76.5q-135 0 -217.5 76.5t-82.5 198.5zM415 771v140h126v-140h-126zM206 771v140h126v-140h-126z" />
    <glyph glyph-name="Yacute" unicode="&#xdd;" horiz-adv-x="639" 
d="M232 0v293l-236 422h199l81 -172l43 -103h2q20 54 43 103l80 172h199l-236 -422v-293h-175zM248 761l81 150h171l-118 -150h-134z" />
    <glyph glyph-name="Thorn" unicode="&#xde;" horiz-adv-x="635" 
d="M84 0v715h175v-106h122q104 0 168.5 -69t64.5 -177q0 -109 -64.5 -178.5t-168.5 -69.5h-122v-115h-175zM259 265h86q44 0 67.5 27t23.5 71t-23 70t-65 26h-89v-194z" />
    <glyph glyph-name="germandbls" unicode="&#xdf;" horiz-adv-x="638" 
d="M64 0v527q0 94 75 147t180 53q94 0 162.5 -54.5t68.5 -138.5q0 -34 -18 -62.5t-36 -52t-18 -45.5q0 -16 21 -35.5t46 -38t46 -54t21 -78.5q0 -84 -56 -129.5t-138 -45.5q-39 0 -70 5t-42 10l-12 6v142q46 -19 95 -19q50 0 50 42q0 15 -21 34t-46.5 37t-46.5 50t-21 70
q0 31 18 60t36 54t18 46q0 24 -16.5 38.5t-45.5 14.5q-77 0 -77 -68v-515h-173z" />
    <glyph glyph-name="agrave" unicode="&#xe0;" horiz-adv-x="560" 
d="M25 154q0 52 34 88.5t87.5 52t95.5 21t82 5.5h7v9q0 57 -76 57q-29 0 -63.5 -12.5t-55.5 -24.5l-20 -12l-60 122q10 8 28.5 19t75 29.5t112.5 18.5q109 0 170.5 -56t61.5 -154v-317h-158v31l2 32h-2q-2 -3 -5 -8t-15.5 -18t-27.5 -23t-41.5 -18t-56.5 -8
q-74 0 -124.5 45.5t-50.5 120.5zM199 163q0 -19 12.5 -31t36.5 -12q33 0 59 29t26 62v11h-16q-47 0 -82.5 -14.5t-35.5 -44.5zM218 565l-118 150h171l81 -150h-134z" />
    <glyph glyph-name="aacute" unicode="&#xe1;" horiz-adv-x="560" 
d="M25 154q0 52 34 88.5t87.5 52t95.5 21t82 5.5h7v9q0 57 -76 57q-29 0 -63.5 -12.5t-55.5 -24.5l-20 -12l-60 122q10 8 28.5 19t75 29.5t112.5 18.5q109 0 170.5 -56t61.5 -154v-317h-158v31l2 32h-2q-2 -3 -5 -8t-15.5 -18t-27.5 -23t-41.5 -18t-56.5 -8
q-74 0 -124.5 45.5t-50.5 120.5zM199 163q0 -19 12.5 -31t36.5 -12q33 0 59 29t26 62v11h-16q-47 0 -82.5 -14.5t-35.5 -44.5zM207 565l81 150h171l-118 -150h-134z" />
    <glyph glyph-name="acircumflex" unicode="&#xe2;" horiz-adv-x="560" 
d="M25 154q0 52 34 88.5t87.5 52t95.5 21t82 5.5h7v9q0 57 -76 57q-29 0 -63.5 -12.5t-55.5 -24.5l-20 -12l-60 122q10 8 28.5 19t75 29.5t112.5 18.5q109 0 170.5 -56t61.5 -154v-317h-158v31l2 32h-2q-2 -3 -5 -8t-15.5 -18t-27.5 -23t-41.5 -18t-56.5 -8
q-74 0 -124.5 45.5t-50.5 120.5zM199 163q0 -19 12.5 -31t36.5 -12q33 0 59 29t26 62v11h-16q-47 0 -82.5 -14.5t-35.5 -44.5zM96 565l99 150h168l99 -150h-135l-47 82h-2l-47 -82h-135z" />
    <glyph glyph-name="atilde" unicode="&#xe3;" horiz-adv-x="560" 
d="M25 154q0 52 34 88.5t87.5 52t95.5 21t82 5.5h7v9q0 57 -76 57q-29 0 -63.5 -12.5t-55.5 -24.5l-20 -12l-60 122q10 8 28.5 19t75 29.5t112.5 18.5q109 0 170.5 -56t61.5 -154v-317h-158v31l2 32h-2q-2 -3 -5 -8t-15.5 -18t-27.5 -23t-41.5 -18t-56.5 -8
q-74 0 -124.5 45.5t-50.5 120.5zM199 163q0 -19 12.5 -31t36.5 -12q33 0 59 29t26 62v11h-16q-47 0 -82.5 -14.5t-35.5 -44.5zM78 565q0 153 128 153q29 0 52 -15t41 -30t33 -15q37 0 37 57h112q0 -153 -128 -153q-29 0 -52 15t-41 30t-33 15q-37 0 -37 -57h-112z" />
    <glyph glyph-name="adieresis" unicode="&#xe4;" horiz-adv-x="560" 
d="M25 154q0 52 34 88.5t87.5 52t95.5 21t82 5.5h7v9q0 57 -76 57q-29 0 -63.5 -12.5t-55.5 -24.5l-20 -12l-60 122q10 8 28.5 19t75 29.5t112.5 18.5q109 0 170.5 -56t61.5 -154v-317h-158v31l2 32h-2q-2 -3 -5 -8t-15.5 -18t-27.5 -23t-41.5 -18t-56.5 -8
q-74 0 -124.5 45.5t-50.5 120.5zM199 163q0 -19 12.5 -31t36.5 -12q33 0 59 29t26 62v11h-16q-47 0 -82.5 -14.5t-35.5 -44.5zM321 575v140h126v-140h-126zM112 575v140h126v-140h-126z" />
    <glyph glyph-name="aring" unicode="&#xe5;" horiz-adv-x="560" 
d="M25 154q0 52 34 88.5t87.5 52t95.5 21t82 5.5h7v9q0 57 -76 57q-29 0 -63.5 -12.5t-55.5 -24.5l-20 -12l-60 122q10 8 28.5 19t75 29.5t112.5 18.5q109 0 170.5 -56t61.5 -154v-317h-158v31l2 32h-2q-2 -3 -5 -8t-15.5 -18t-27.5 -23t-41.5 -18t-56.5 -8
q-74 0 -124.5 45.5t-50.5 120.5zM199 163q0 -19 12.5 -31t36.5 -12q33 0 59 29t26 62v11h-16q-47 0 -82.5 -14.5t-35.5 -44.5zM279 551q-44 0 -76.5 22t-32.5 63t32.5 63.5t76.5 22.5t77 -22.5t33 -63.5t-33 -63t-77 -22zM279 601q16 0 25.5 9.5t9.5 25.5t-9.5 26t-25.5 10
q-15 0 -24.5 -10t-9.5 -26t9 -25.5t25 -9.5z" />
    <glyph glyph-name="ae" unicode="&#xe6;" horiz-adv-x="855" 
d="M26 154q0 44 24 76.5t57.5 49.5t79 27.5t77.5 13t64 2.5h4v7q0 57 -76 57q-29 0 -64 -12.5t-56 -24.5l-20 -12l-60 121q10 8 27.5 19t73.5 30t112 19q106 0 163 -51h2q62 51 154 51q108 0 173 -71.5t65 -182.5l-4 -49h-325q9 -46 42.5 -69t77.5 -23q33 0 68.5 13t54.5 25
l19 13l64 -120q-9 -8 -26.5 -20.5t-75 -33.5t-118.5 -21q-133 0 -207 90h-2q-16 -29 -65 -59t-128 -30q-74 0 -124.5 45.5t-50.5 119.5zM501 323h151q0 29 -18 51.5t-46 22.5q-68 0 -87 -74zM200 163q0 -43 51 -43q34 0 59 29.5t25 62.5v12h-17q-46 0 -82 -16t-36 -45z" />
    <glyph glyph-name="ccedilla" unicode="&#xe7;" horiz-adv-x="553" 
d="M28 258q0 110 77.5 189.5t209.5 79.5q39 0 74.5 -8t58.5 -19.5t40 -23t24 -19.5l8 -8l-73 -116q-6 6 -16 14t-41.5 22t-63.5 14q-58 0 -90.5 -36.5t-32.5 -86.5q0 -51 34 -89.5t95 -38.5q32 0 67 15.5t55 30.5l19 16l63 -121q-3 -3 -8.5 -8t-24.5 -19t-40.5 -24.5
t-55.5 -20.5t-70 -12l-6 -25q75 -8 75 -80q0 -50 -34 -72t-83 -22q-17 0 -34.5 2t-26.5 4l-10 3v87q23 -10 45 -10q38 0 38 23q0 21 -41 21l-26 -2l23 75q-107 17 -168 91.5t-61 173.5z" />
    <glyph glyph-name="egrave" unicode="&#xe8;" horiz-adv-x="563" 
d="M27 258q0 116 73 192.5t195 76.5q111 0 174.5 -69.5t63.5 -179.5l-4 -54h-325q9 -45 42.5 -68.5t77.5 -23.5q33 0 68.5 13t54.5 26l19 13l64 -121q-9 -8 -26.5 -20.5t-75 -33.5t-118.5 -21q-131 0 -207 80t-76 190zM208 323h151q0 30 -19 52t-49 22q-65 0 -83 -74z
M230 565l-118 150h171l81 -150h-134z" />
    <glyph glyph-name="eacute" unicode="&#xe9;" horiz-adv-x="563" 
d="M27 258q0 116 73 192.5t195 76.5q111 0 174.5 -69.5t63.5 -179.5l-4 -54h-325q9 -45 42.5 -68.5t77.5 -23.5q33 0 68.5 13t54.5 26l19 13l64 -121q-9 -8 -26.5 -20.5t-75 -33.5t-118.5 -21q-131 0 -207 80t-76 190zM208 323h151q0 30 -19 52t-49 22q-65 0 -83 -74z
M219 565l81 150h171l-118 -150h-134z" />
    <glyph glyph-name="ecircumflex" unicode="&#xea;" horiz-adv-x="563" 
d="M27 258q0 116 73 192.5t195 76.5q111 0 174.5 -69.5t63.5 -179.5l-4 -54h-325q9 -45 42.5 -68.5t77.5 -23.5q33 0 68.5 13t54.5 26l19 13l64 -121q-9 -8 -26.5 -20.5t-75 -33.5t-118.5 -21q-131 0 -207 80t-76 190zM208 323h151q0 30 -19 52t-49 22q-65 0 -83 -74z
M108 565l99 150h168l99 -150h-135l-47 82h-2l-47 -82h-135z" />
    <glyph glyph-name="edieresis" unicode="&#xeb;" horiz-adv-x="563" 
d="M27 258q0 116 73 192.5t195 76.5q111 0 174.5 -69.5t63.5 -179.5l-4 -54h-325q9 -45 42.5 -68.5t77.5 -23.5q33 0 68.5 13t54.5 26l19 13l64 -121q-9 -8 -26.5 -20.5t-75 -33.5t-118.5 -21q-131 0 -207 80t-76 190zM208 323h151q0 30 -19 52t-49 22q-65 0 -83 -74z
M333 575v140h126v-140h-126zM124 575v140h126v-140h-126z" />
    <glyph glyph-name="igrave" unicode="&#xec;" horiz-adv-x="301" 
d="M64 0v515h173v-515h-173zM88 565l-118 150h171l81 -150h-134z" />
    <glyph glyph-name="iacute" unicode="&#xed;" horiz-adv-x="301" 
d="M64 0v515h173v-515h-173zM78 565l81 150h171l-118 -150h-134z" />
    <glyph glyph-name="icircumflex" unicode="&#xee;" horiz-adv-x="301" 
d="M64 0v515h173v-515h-173zM-33 565l99 150h168l99 -150h-135l-47 82h-2l-47 -82h-135z" />
    <glyph glyph-name="idieresis" unicode="&#xef;" horiz-adv-x="301" 
d="M64 0v515h173v-515h-173zM192 575v140h126v-140h-126zM-17 575v140h126v-140h-126z" />
    <glyph glyph-name="eth" unicode="&#xf0;" horiz-adv-x="596" 
d="M30 241q0 91 63.5 157t167.5 66q17 0 34.5 -2t26.5 -4l8 -3h2q-25 38 -70 63l-192 -79v95l92 39q-52 22 -95 30l48 135q132 -28 232 -89l161 67v-95l-81 -34q127 -122 127 -304q0 -43 -8.5 -83.5t-29 -79.5t-50.5 -68t-77 -46.5t-105 -17.5q-116 0 -185 75t-69 178z
M204 236q0 -44 20 -74t63 -30q48 0 70.5 34.5t22.5 83.5q0 37 -22 59.5t-61 22.5q-45 0 -69 -27.5t-24 -68.5z" />
    <glyph glyph-name="ntilde" unicode="&#xf1;" horiz-adv-x="636" 
d="M64 0v515h166v-45l-2 -32h2q53 89 164 89q185 0 185 -193v-334h-173v302q0 68 -57 68q-77 0 -102 -74q-10 -29 -10 -68v-228h-173zM124 565q0 153 128 153q29 0 52 -15t41 -30t33 -15q37 0 37 57h112q0 -153 -128 -153q-29 0 -52 15t-41 30t-33 15q-37 0 -37 -57h-112z
" />
    <glyph glyph-name="ograve" unicode="&#xf2;" horiz-adv-x="636" 
d="M26 256q0 119 84 195t207 76q124 0 208.5 -75.5t84.5 -195.5q0 -119 -84 -193.5t-208 -74.5t-208 74.5t-84 193.5zM201 256q0 -56 34 -90t83 -34t83 34t34 90q0 57 -34 92t-83 35t-83 -35t-34 -92zM256 565l-118 150h171l81 -150h-134z" />
    <glyph glyph-name="oacute" unicode="&#xf3;" horiz-adv-x="636" 
d="M26 256q0 119 84 195t207 76q124 0 208.5 -75.5t84.5 -195.5q0 -119 -84 -193.5t-208 -74.5t-208 74.5t-84 193.5zM201 256q0 -56 34 -90t83 -34t83 34t34 90q0 57 -34 92t-83 35t-83 -35t-34 -92zM246 565l81 150h171l-118 -150h-134z" />
    <glyph glyph-name="ocircumflex" unicode="&#xf4;" horiz-adv-x="636" 
d="M26 256q0 119 84 195t207 76q124 0 208.5 -75.5t84.5 -195.5q0 -119 -84 -193.5t-208 -74.5t-208 74.5t-84 193.5zM201 256q0 -56 34 -90t83 -34t83 34t34 90q0 57 -34 92t-83 35t-83 -35t-34 -92zM135 565l99 150h168l99 -150h-135l-47 82h-2l-47 -82h-135z" />
    <glyph glyph-name="otilde" unicode="&#xf5;" horiz-adv-x="636" 
d="M26 256q0 119 84 195t207 76q124 0 208.5 -75.5t84.5 -195.5q0 -119 -84 -193.5t-208 -74.5t-208 74.5t-84 193.5zM201 256q0 -56 34 -90t83 -34t83 34t34 90q0 57 -34 92t-83 35t-83 -35t-34 -92zM117 565q0 153 128 153q29 0 52 -15t41 -30t33 -15q37 0 37 57h112
q0 -153 -128 -153q-29 0 -52 15t-41 30t-33 15q-37 0 -37 -57h-112z" />
    <glyph glyph-name="odieresis" unicode="&#xf6;" horiz-adv-x="636" 
d="M26 256q0 119 84 195t207 76q124 0 208.5 -75.5t84.5 -195.5q0 -119 -84 -193.5t-208 -74.5t-208 74.5t-84 193.5zM201 256q0 -56 34 -90t83 -34t83 34t34 90q0 57 -34 92t-83 35t-83 -35t-34 -92zM360 575v140h126v-140h-126zM151 575v140h126v-140h-126z" />
    <glyph glyph-name="divide" unicode="&#xf7;" horiz-adv-x="712" 
d="M283 440v135h146v-135h-146zM83 222v130h546v-130h-546zM283 0v135h146v-135h-146z" />
    <glyph glyph-name="oslash" unicode="&#xf8;" horiz-adv-x="635" 
d="M25 256q0 119 84 195t207 76q70 0 131 -26l42 58l66 -45l-40 -55q94 -78 94 -203q0 -119 -84 -193.5t-208 -74.5q-67 0 -124 23l-44 -61l-66 46l39 55q-97 76 -97 205zM200 256q0 -41 19 -71l138 191q-23 7 -40 7q-49 0 -83 -35t-34 -92zM434 256q0 37 -16 67l-135 -187
q15 -4 34 -4q49 0 83 34t34 90z" />
    <glyph glyph-name="ugrave" unicode="&#xf9;" horiz-adv-x="631" 
d="M57 181v334h173v-302q0 -68 55 -68q53 0 81 40.5t28 101.5v228h173v-515h-166v45l2 32h-2q-21 -41 -65 -65t-96 -24q-84 0 -133.5 45.5t-49.5 147.5zM250 565l-118 150h171l81 -150h-134z" />
    <glyph glyph-name="uacute" unicode="&#xfa;" horiz-adv-x="631" 
d="M57 181v334h173v-302q0 -68 55 -68q53 0 81 40.5t28 101.5v228h173v-515h-166v45l2 32h-2q-21 -41 -65 -65t-96 -24q-84 0 -133.5 45.5t-49.5 147.5zM240 565l81 150h171l-118 -150h-134z" />
    <glyph glyph-name="ucircumflex" unicode="&#xfb;" horiz-adv-x="631" 
d="M57 181v334h173v-302q0 -68 55 -68q53 0 81 40.5t28 101.5v228h173v-515h-166v45l2 32h-2q-21 -41 -65 -65t-96 -24q-84 0 -133.5 45.5t-49.5 147.5zM129 565l99 150h168l99 -150h-135l-47 82h-2l-47 -82h-135z" />
    <glyph glyph-name="udieresis" unicode="&#xfc;" horiz-adv-x="631" 
d="M57 181v334h173v-302q0 -68 55 -68q53 0 81 40.5t28 101.5v228h173v-515h-166v45l2 32h-2q-21 -41 -65 -65t-96 -24q-84 0 -133.5 45.5t-49.5 147.5zM354 575v140h126v-140h-126zM145 575v140h126v-140h-126z" />
    <glyph glyph-name="yacute" unicode="&#xfd;" horiz-adv-x="546" 
d="M1 -174l55 127q28 -19 53 -19q62 0 83 52l10 24l-219 505h196l76 -237l19 -80h2q10 49 17 77l65 240h189l-211 -570q-30 -80 -88.5 -117.5t-126.5 -37.5q-30 0 -60 9t-45 18zM203 564l81 150h171l-118 -150h-134z" />
    <glyph glyph-name="thorn" unicode="&#xfe;" horiz-adv-x="635" 
d="M64 -200v915h173v-197l-2 -44h2q48 53 134 53q105 0 170.5 -76.5t65.5 -192.5t-65.5 -193t-170.5 -77q-43 0 -76.5 12t-45.5 24l-12 12h-2q2 -18 2 -44v-192h-173zM232 257q0 -125 104 -125q44 0 70.5 36.5t26.5 89.5t-26.5 89t-70.5 36q-104 0 -104 -126z" />
    <glyph glyph-name="ydieresis" unicode="&#xff;" horiz-adv-x="546" 
d="M1 -174l55 127q28 -19 53 -19q62 0 83 52l10 24l-219 505h196l76 -237l19 -80h2q10 49 17 77l65 240h189l-211 -570q-30 -80 -88.5 -117.5t-126.5 -37.5q-30 0 -60 9t-45 18zM317 574v140h126v-140h-126zM108 574v140h126v-140h-126z" />
    <glyph glyph-name="Amacron" unicode="&#x100;" horiz-adv-x="662" 
d="M486 0l-44 150h-223l-43 -150h-180l243 715h184l243 -715h-180zM332 552h-2q-16 -78 -29 -123l-41 -139h141l-40 139zM194 782v112h275v-112h-275z" />
    <glyph glyph-name="amacron" unicode="&#x101;" horiz-adv-x="560" 
d="M25 154q0 52 34 88.5t87.5 52t95.5 21t82 5.5h7v9q0 57 -76 57q-29 0 -63.5 -12.5t-55.5 -24.5l-20 -12l-60 122q10 8 28.5 19t75 29.5t112.5 18.5q109 0 170.5 -56t61.5 -154v-317h-158v31l2 32h-2q-2 -3 -5 -8t-15.5 -18t-27.5 -23t-41.5 -18t-56.5 -8
q-74 0 -124.5 45.5t-50.5 120.5zM199 163q0 -19 12.5 -31t36.5 -12q33 0 59 29t26 62v11h-16q-47 0 -82.5 -14.5t-35.5 -44.5zM142 586v112h275v-112h-275z" />
    <glyph glyph-name="Abreve" unicode="&#x102;" horiz-adv-x="662" 
d="M486 0l-44 150h-223l-43 -150h-180l243 715h184l243 -715h-180zM332 552h-2q-16 -78 -29 -123l-41 -139h141l-40 139zM331 756q-73 0 -123.5 39t-50.5 106v10h117v-11q0 -28 17 -43t40 -15t40 15t17 43v11h117v-10q0 -67 -50.5 -106t-123.5 -39z" />
    <glyph glyph-name="abreve" unicode="&#x103;" horiz-adv-x="560" 
d="M25 154q0 52 34 88.5t87.5 52t95.5 21t82 5.5h7v9q0 57 -76 57q-29 0 -63.5 -12.5t-55.5 -24.5l-20 -12l-60 122q10 8 28.5 19t75 29.5t112.5 18.5q109 0 170.5 -56t61.5 -154v-317h-158v31l2 32h-2q-2 -3 -5 -8t-15.5 -18t-27.5 -23t-41.5 -18t-56.5 -8
q-74 0 -124.5 45.5t-50.5 120.5zM199 163q0 -19 12.5 -31t36.5 -12q33 0 59 29t26 62v11h-16q-47 0 -82.5 -14.5t-35.5 -44.5zM279 560q-73 0 -123.5 39t-50.5 106v10h117v-11q0 -28 17 -43t40 -15t40 15t17 43v11h117v-10q0 -67 -50.5 -106t-123.5 -39z" />
    <glyph glyph-name="Aogonek" unicode="&#x104;" horiz-adv-x="662" 
d="M486 0l-44 150h-223l-43 -150h-180l243 715h184l243 -715q-43 -40 -43 -61q0 -10 9.5 -16t19.5 -7l9 -2l-42 -124q-5 1 -14 2t-32 8t-40.5 17t-32 29t-14.5 43q0 54 63 109v2h-63zM332 552h-2q-16 -78 -29 -123l-41 -139h141l-40 139z" />
    <glyph glyph-name="aogonek" unicode="&#x105;" horiz-adv-x="560" 
d="M25 154q0 52 34 88.5t87.5 52t95.5 21t82 5.5h7v9q0 57 -76 57q-29 0 -63.5 -12.5t-55.5 -24.5l-20 -12l-60 122q10 8 28.5 19t75 29.5t112.5 18.5q109 0 170.5 -56t61.5 -154v-317q-43 -40 -43 -61q0 -10 9.5 -16t19.5 -7l9 -2l-42 -124q-5 1 -14 2t-32 8t-40.5 17
t-32 29t-14.5 43q0 54 63 109v2h-41v31l2 32h-2q-2 -3 -5 -8t-15.5 -18t-27.5 -23t-41.5 -18t-56.5 -8q-74 0 -124.5 45.5t-50.5 120.5zM199 163q0 -19 12.5 -31t36.5 -12q33 0 59 29t26 62v11h-16q-47 0 -82.5 -14.5t-35.5 -44.5z" />
    <glyph glyph-name="Cacute" unicode="&#x106;" horiz-adv-x="720" 
d="M35 359q0 157 107 262.5t268 105.5q50 0 95.5 -10.5t75.5 -25.5t53 -29.5t34 -25.5l10 -10l-81 -132q-9 8 -25 20t-63 32.5t-91 20.5q-97 0 -149.5 -60t-52.5 -144q0 -86 54 -150.5t148 -64.5q48 0 95.5 22t70.5 44l24 22l90 -128q-4 -5 -12 -13t-35.5 -28.5t-58.5 -36.5
t-80.5 -29t-101.5 -13q-166 0 -270.5 105t-104.5 266zM328 761l81 150h171l-118 -150h-134z" />
    <glyph glyph-name="cacute" unicode="&#x107;" horiz-adv-x="551" 
d="M26 258q0 110 77.5 189.5t209.5 79.5q39 0 74.5 -8t58.5 -19.5t40 -23t24 -19.5l8 -8l-73 -116q-6 6 -16 14t-41.5 22t-63.5 14q-58 0 -90.5 -36.5t-32.5 -86.5q0 -51 34 -89.5t95 -38.5q32 0 67 15.5t55 30.5l19 16l63 -121l-9 -9t-27 -20.5t-45 -26t-62 -20.5t-78 -9
q-132 0 -209.5 79t-77.5 191zM221 565l81 150h171l-118 -150h-134z" />
    <glyph glyph-name="Ccircumflex" unicode="&#x108;" horiz-adv-x="720" 
d="M35 359q0 157 107 262.5t268 105.5q50 0 95.5 -10.5t75.5 -25.5t53 -29.5t34 -25.5l10 -10l-81 -132q-9 8 -25 20t-63 32.5t-91 20.5q-97 0 -149.5 -60t-52.5 -144q0 -86 54 -150.5t148 -64.5q48 0 95.5 22t70.5 44l24 22l90 -128q-4 -5 -12 -13t-35.5 -28.5t-58.5 -36.5
t-80.5 -29t-101.5 -13q-166 0 -270.5 105t-104.5 266zM217 761l99 150h168l99 -150h-135l-47 82h-2l-47 -82h-135z" />
    <glyph glyph-name="ccircumflex" unicode="&#x109;" horiz-adv-x="551" 
d="M26 258q0 110 77.5 189.5t209.5 79.5q39 0 74.5 -8t58.5 -19.5t40 -23t24 -19.5l8 -8l-73 -116q-6 6 -16 14t-41.5 22t-63.5 14q-58 0 -90.5 -36.5t-32.5 -86.5q0 -51 34 -89.5t95 -38.5q32 0 67 15.5t55 30.5l19 16l63 -121l-9 -9t-27 -20.5t-45 -26t-62 -20.5t-78 -9
q-132 0 -209.5 79t-77.5 191zM110 565l99 150h168l99 -150h-135l-47 82h-2l-47 -82h-135z" />
    <glyph glyph-name="Cdotaccent" unicode="&#x10a;" horiz-adv-x="720" 
d="M35 359q0 157 107 262.5t268 105.5q50 0 95.5 -10.5t75.5 -25.5t53 -29.5t34 -25.5l10 -10l-81 -132q-9 8 -25 20t-63 32.5t-91 20.5q-97 0 -149.5 -60t-52.5 -144q0 -86 54 -150.5t148 -64.5q48 0 95.5 22t70.5 44l24 22l90 -128q-4 -5 -12 -13t-35.5 -28.5t-58.5 -36.5
t-80.5 -29t-101.5 -13q-166 0 -270.5 105t-104.5 266zM329 779v132h143v-132h-143z" />
    <glyph glyph-name="cdotaccent" unicode="&#x10b;" horiz-adv-x="551" 
d="M26 258q0 110 77.5 189.5t209.5 79.5q39 0 74.5 -8t58.5 -19.5t40 -23t24 -19.5l8 -8l-73 -116q-6 6 -16 14t-41.5 22t-63.5 14q-58 0 -90.5 -36.5t-32.5 -86.5q0 -51 34 -89.5t95 -38.5q32 0 67 15.5t55 30.5l19 16l63 -121l-9 -9t-27 -20.5t-45 -26t-62 -20.5t-78 -9
q-132 0 -209.5 79t-77.5 191zM222 583v132h143v-132h-143z" />
    <glyph glyph-name="Ccaron" unicode="&#x10c;" horiz-adv-x="720" 
d="M35 359q0 157 107 262.5t268 105.5q50 0 95.5 -10.5t75.5 -25.5t53 -29.5t34 -25.5l10 -10l-81 -132q-9 8 -25 20t-63 32.5t-91 20.5q-97 0 -149.5 -60t-52.5 -144q0 -86 54 -150.5t148 -64.5q48 0 95.5 22t70.5 44l24 22l90 -128q-4 -5 -12 -13t-35.5 -28.5t-58.5 -36.5
t-80.5 -29t-101.5 -13q-166 0 -270.5 105t-104.5 266zM316 761l-99 150h135l47 -82h2l47 82h135l-99 -150h-168z" />
    <glyph glyph-name="ccaron" unicode="&#x10d;" horiz-adv-x="551" 
d="M26 258q0 110 77.5 189.5t209.5 79.5q39 0 74.5 -8t58.5 -19.5t40 -23t24 -19.5l8 -8l-73 -116q-6 6 -16 14t-41.5 22t-63.5 14q-58 0 -90.5 -36.5t-32.5 -86.5q0 -51 34 -89.5t95 -38.5q32 0 67 15.5t55 30.5l19 16l63 -121l-9 -9t-27 -20.5t-45 -26t-62 -20.5t-78 -9
q-132 0 -209.5 79t-77.5 191zM209 565l-99 150h135l47 -82h2l47 82h135l-99 -150h-168z" />
    <glyph glyph-name="Dcaron" unicode="&#x10e;" horiz-adv-x="746" 
d="M84 0v715h254q170 0 269.5 -94.5t99.5 -261.5q0 -168 -99.5 -263.5t-269.5 -95.5h-254zM259 150h72q92 0 143.5 54t51.5 155q0 100 -52 153t-143 53h-72v-415zM268 761l-99 150h135l47 -82h2l47 82h135l-99 -150h-168z" />
    <glyph glyph-name="dcaron" unicode="&#x10f;" horiz-adv-x="667" 
d="M29 258q0 121 65.5 195t169.5 74q46 0 80 -10.5t44 -20.5l11 -10h2q-1 10 -1 23v206h173v-715h-162v34l1 29h-2l-5.5 -8t-16.5 -18t-28.5 -23t-42 -18t-56.5 -8q-105 0 -168.5 74.5t-63.5 195.5zM203 258q0 -57 28 -92t73 -35q43 0 72 32t29 95q0 50 -26.5 86.5
t-74.5 36.5q-43 0 -72 -33t-29 -90zM619 715h136q7 -29 7 -58q0 -47 -28 -103h-123q20 58 20 93q0 33 -12 68z" />
    <glyph glyph-name="Dcroat" unicode="&#x110;" horiz-adv-x="767" 
d="M48 284v140h57v291h254q170 0 269.5 -94.5t99.5 -261.5q0 -168 -99.5 -263.5t-269.5 -95.5h-254v284h-57zM280 150h72q92 0 143.5 54t51.5 155q0 100 -52 153t-143 53h-72v-141h104v-140h-104v-134z" />
    <glyph glyph-name="dcroat" unicode="&#x111;" horiz-adv-x="637" 
d="M274 554v95h126v66h173v-66h66v-95h-66v-554h-162v34l1 29h-2l-5.5 -8t-16.5 -18t-28.5 -23t-42 -18t-56.5 -8q-105 0 -168.5 74.5t-63.5 195.5t65.5 195t169.5 74q46 0 80 -10.5t44 -20.5l11 -10h2q-1 10 -1 23v45h-126zM203 258q0 -57 28 -92t73 -35q43 0 72 32t29 95
q0 50 -26.5 86.5t-74.5 36.5q-43 0 -72 -33t-29 -90z" />
    <glyph glyph-name="Emacron" unicode="&#x112;" horiz-adv-x="588" 
d="M84 0v715h448v-150h-273v-130h218v-150h-218v-135h287v-150h-462zM179 782v112h275v-112h-275z" />
    <glyph glyph-name="emacron" unicode="&#x113;" horiz-adv-x="563" 
d="M27 258q0 116 73 192.5t195 76.5q111 0 174.5 -69.5t63.5 -179.5l-4 -54h-325q9 -45 42.5 -68.5t77.5 -23.5q33 0 68.5 13t54.5 26l19 13l64 -121q-9 -8 -26.5 -20.5t-75 -33.5t-118.5 -21q-131 0 -207 80t-76 190zM208 323h151q0 30 -19 52t-49 22q-65 0 -83 -74z
M154 586v112h275v-112h-275z" />
    <glyph glyph-name="Ebreve" unicode="&#x114;" horiz-adv-x="588" 
d="M84 0v715h448v-150h-273v-130h218v-150h-218v-135h287v-150h-462zM316 756q-73 0 -123.5 39t-50.5 106v10h117v-11q0 -28 17 -43t40 -15t40 15t17 43v11h117v-10q0 -67 -50.5 -106t-123.5 -39z" />
    <glyph glyph-name="ebreve" unicode="&#x115;" horiz-adv-x="563" 
d="M27 258q0 116 73 192.5t195 76.5q111 0 174.5 -69.5t63.5 -179.5l-4 -54h-325q9 -45 42.5 -68.5t77.5 -23.5q33 0 68.5 13t54.5 26l19 13l64 -121q-9 -8 -26.5 -20.5t-75 -33.5t-118.5 -21q-131 0 -207 80t-76 190zM208 323h151q0 30 -19 52t-49 22q-65 0 -83 -74z
M291 560q-73 0 -123.5 39t-50.5 106v10h117v-11q0 -28 17 -43t40 -15t40 15t17 43v11h117v-10q0 -67 -50.5 -106t-123.5 -39z" />
    <glyph glyph-name="Edotaccent" unicode="&#x116;" horiz-adv-x="588" 
d="M84 0v715h448v-150h-273v-130h218v-150h-218v-135h287v-150h-462zM245 779v132h143v-132h-143z" />
    <glyph glyph-name="edotaccent" unicode="&#x117;" horiz-adv-x="563" 
d="M27 258q0 116 73 192.5t195 76.5q111 0 174.5 -69.5t63.5 -179.5l-4 -54h-325q9 -45 42.5 -68.5t77.5 -23.5q33 0 68.5 13t54.5 26l19 13l64 -121q-9 -8 -26.5 -20.5t-75 -33.5t-118.5 -21q-131 0 -207 80t-76 190zM208 323h151q0 30 -19 52t-49 22q-65 0 -83 -74z
M220 583v132h143v-132h-143z" />
    <glyph glyph-name="Eogonek" unicode="&#x118;" horiz-adv-x="588" 
d="M84 0v715h448v-150h-273v-130h218v-150h-218v-135h287v-150q-43 -40 -43 -61q0 -10 9.5 -16t19.5 -7l9 -2l-42 -124q-5 1 -14 2t-32 8t-40.5 17t-32 29t-14.5 43q0 54 66 109v2h-348z" />
    <glyph glyph-name="eogonek" unicode="&#x119;" horiz-adv-x="565" 
d="M27 258q0 116 73 192.5t195 76.5q111 0 174.5 -69.5t63.5 -179.5l-4 -54h-325q9 -45 42.5 -68.5t77.5 -23.5q33 0 68.5 13t54.5 26l19 13l63 -120q-8 -8 -39 -31.5t-49.5 -46t-18.5 -47.5q0 -10 9.5 -16t18.5 -7l10 -2l-42 -124q-5 1 -14 2t-32 8t-40.5 17t-32 29
t-14.5 43q0 51 61 100v2q-20 -3 -36 -3q-131 0 -207 80t-76 190zM208 323h151q0 30 -19 52t-49 22q-65 0 -83 -74z" />
    <glyph glyph-name="Ecaron" unicode="&#x11a;" horiz-adv-x="588" 
d="M84 0v715h448v-150h-273v-130h218v-150h-218v-135h287v-150h-462zM232 761l-99 150h135l47 -82h2l47 82h135l-99 -150h-168z" />
    <glyph glyph-name="ecaron" unicode="&#x11b;" horiz-adv-x="563" 
d="M27 258q0 116 73 192.5t195 76.5q111 0 174.5 -69.5t63.5 -179.5l-4 -54h-325q9 -45 42.5 -68.5t77.5 -23.5q33 0 68.5 13t54.5 26l19 13l64 -121q-9 -8 -26.5 -20.5t-75 -33.5t-118.5 -21q-131 0 -207 80t-76 190zM208 323h151q0 30 -19 52t-49 22q-65 0 -83 -74z
M207 565l-99 150h135l47 -82h2l47 82h135l-99 -150h-168z" />
    <glyph glyph-name="Gcircumflex" unicode="&#x11c;" horiz-adv-x="770" 
d="M36 359q0 157 106.5 262.5t268.5 105.5q51 0 98.5 -10t78 -23.5t54 -27.5t34.5 -24l10 -10l-84 -131q-8 7 -23 18t-60.5 29.5t-90.5 18.5q-106 0 -158.5 -57.5t-52.5 -144.5q0 -99 59.5 -158t145.5 -59q37 0 73.5 13t54.5 26l17 13v55h-101v149h256v-404h-146v20l1 30h-2
q-8 -7 -22.5 -17.5t-63.5 -27.5t-102 -17q-144 0 -247.5 101t-103.5 270zM218 761l99 150h168l99 -150h-135l-47 82h-2l-47 -82h-135z" />
    <glyph glyph-name="gcircumflex" unicode="&#x11d;" horiz-adv-x="629" 
d="M128 -33q64 -33 145 -33q119 0 119 99v17l1 19h-2q-45 -54 -129 -54q-110 0 -171 76t-61 183q0 106 60 179.5t171 73.5q42 0 77 -12.5t49 -24.5l14 -13h3q-1 6 -1 12v26h162v-468q0 -68 -25 -119t-68 -80.5t-92.5 -43.5t-105.5 -14q-107 0 -195 46zM303 159
q40 0 66.5 25.5t26.5 87.5q0 111 -100 111q-44 0 -68 -28.5t-24 -74.5q0 -52 25 -86.5t74 -34.5zM119 565l99 150h168l99 -150h-135l-47 82h-2l-47 -82h-135z" />
    <glyph glyph-name="Gbreve" unicode="&#x11e;" horiz-adv-x="770" 
d="M36 359q0 157 106.5 262.5t268.5 105.5q51 0 98.5 -10t78 -23.5t54 -27.5t34.5 -24l10 -10l-84 -131q-8 7 -23 18t-60.5 29.5t-90.5 18.5q-106 0 -158.5 -57.5t-52.5 -144.5q0 -99 59.5 -158t145.5 -59q37 0 73.5 13t54.5 26l17 13v55h-101v149h256v-404h-146v20l1 30h-2
q-8 -7 -22.5 -17.5t-63.5 -27.5t-102 -17q-144 0 -247.5 101t-103.5 270zM401 756q-73 0 -123.5 39t-50.5 106v10h117v-11q0 -28 17 -43t40 -15t40 15t17 43v11h117v-10q0 -67 -50.5 -106t-123.5 -39z" />
    <glyph glyph-name="gbreve" unicode="&#x11f;" horiz-adv-x="629" 
d="M128 -33q64 -33 145 -33q119 0 119 99v17l1 19h-2q-45 -54 -129 -54q-110 0 -171 76t-61 183q0 106 60 179.5t171 73.5q42 0 77 -12.5t49 -24.5l14 -13h3q-1 6 -1 12v26h162v-468q0 -68 -25 -119t-68 -80.5t-92.5 -43.5t-105.5 -14q-107 0 -195 46zM303 159
q40 0 66.5 25.5t26.5 87.5q0 111 -100 111q-44 0 -68 -28.5t-24 -74.5q0 -52 25 -86.5t74 -34.5zM302 560q-73 0 -123.5 39t-50.5 106v10h117v-11q0 -28 17 -43t40 -15t40 15t17 43v11h117v-10q0 -67 -50.5 -106t-123.5 -39z" />
    <glyph glyph-name="Gdotaccent" unicode="&#x120;" horiz-adv-x="770" 
d="M36 359q0 157 106.5 262.5t268.5 105.5q51 0 98.5 -10t78 -23.5t54 -27.5t34.5 -24l10 -10l-84 -131q-8 7 -23 18t-60.5 29.5t-90.5 18.5q-106 0 -158.5 -57.5t-52.5 -144.5q0 -99 59.5 -158t145.5 -59q37 0 73.5 13t54.5 26l17 13v55h-101v149h256v-404h-146v20l1 30h-2
q-8 -7 -22.5 -17.5t-63.5 -27.5t-102 -17q-144 0 -247.5 101t-103.5 270zM330 779v132h143v-132h-143z" />
    <glyph glyph-name="gdotaccent" unicode="&#x121;" horiz-adv-x="629" 
d="M128 -33q64 -33 145 -33q119 0 119 99v17l1 19h-2q-45 -54 -129 -54q-110 0 -171 76t-61 183q0 106 60 179.5t171 73.5q42 0 77 -12.5t49 -24.5l14 -13h3q-1 6 -1 12v26h162v-468q0 -68 -25 -119t-68 -80.5t-92.5 -43.5t-105.5 -14q-107 0 -195 46zM303 159
q40 0 66.5 25.5t26.5 87.5q0 111 -100 111q-44 0 -68 -28.5t-24 -74.5q0 -52 25 -86.5t74 -34.5zM231 583v132h143v-132h-143z" />
    <glyph glyph-name="Gcommaaccent" unicode="&#x122;" horiz-adv-x="770" 
d="M36 359q0 157 106.5 262.5t268.5 105.5q51 0 98.5 -10t78 -23.5t54 -27.5t34.5 -24l10 -10l-84 -131q-8 7 -23 18t-60.5 29.5t-90.5 18.5q-106 0 -158.5 -57.5t-52.5 -144.5q0 -99 59.5 -158t145.5 -59q37 0 73.5 13t54.5 26l17 13v55h-101v149h256v-404h-146v20l1 30h-2
q-8 -7 -22.5 -17.5t-63.5 -27.5t-102 -17q-144 0 -247.5 101t-103.5 270zM316 -49h136q7 -29 7 -58q0 -47 -28 -103h-123q20 58 20 93q0 33 -12 68z" />
    <glyph glyph-name="gcommaaccent" unicode="&#x123;" horiz-adv-x="629" 
d="M128 -33q64 -33 145 -33q119 0 119 99v17l1 19h-2q-45 -54 -129 -54q-110 0 -171 76t-61 183q0 106 60 179.5t171 73.5q42 0 77 -12.5t49 -24.5l14 -13h3q-1 6 -1 12v26h162v-468q0 -68 -25 -119t-68 -80.5t-92.5 -43.5t-105.5 -14q-107 0 -195 46zM303 159
q40 0 66.5 25.5t26.5 87.5q0 111 -100 111q-44 0 -68 -28.5t-24 -74.5q0 -52 25 -86.5t74 -34.5zM373 560h-135q-7 28 -7 56q0 45 27 99h123q-20 -57 -20 -89q0 -33 12 -66z" />
    <glyph glyph-name="Hcircumflex" unicode="&#x124;" horiz-adv-x="778" 
d="M84 0v715h175v-286h260v286h175v-715h-175v280h-260v-280h-175zM206 761l99 150h168l99 -150h-135l-47 82h-2l-47 -82h-135z" />
    <glyph glyph-name="hcircumflex" unicode="&#x125;" horiz-adv-x="636" 
d="M64 0v715h173v-226l-2 -44h2q22 38 64 60t93 22q185 0 185 -193v-334h-173v302q0 68 -57 68q-78 0 -103 -76q-9 -26 -9 -66v-228h-173zM-32 761l99 150h168l99 -150h-135l-47 82h-2l-47 -82h-135z" />
    <glyph glyph-name="Hbar" unicode="&#x126;" horiz-adv-x="810" 
d="M105 0v517h-66v107h66v91h179v-91h242v91h179v-91h65v-107h-65v-517h-179v280h-242v-280h-179zM284 429h242v88h-242v-88z" />
    <glyph glyph-name="hbar" unicode="&#x127;" horiz-adv-x="636" 
d="M64 0v554h-58v95h58v66h173v-66h134v-95h-134v-65l-2 -44h2q22 38 64 60t93 22q185 0 185 -193v-334h-173v302q0 68 -57 68q-78 0 -103 -76q-9 -26 -9 -66v-228h-173z" />
    <glyph glyph-name="Itilde" unicode="&#x128;" horiz-adv-x="343" 
d="M84 0v715h175v-715h-175zM-29 761q0 153 128 153q29 0 52 -15t41 -30t33 -15q37 0 37 57h112q0 -153 -128 -153q-29 0 -52 15t-41 30t-33 15q-37 0 -37 -57h-112z" />
    <glyph glyph-name="itilde" unicode="&#x129;" horiz-adv-x="301" 
d="M64 0v515h173v-515h-173zM-51 565q0 153 128 153q29 0 52 -15t41 -30t33 -15q37 0 37 57h112q0 -153 -128 -153q-29 0 -52 15t-41 30t-33 15q-37 0 -37 -57h-112z" />
    <glyph glyph-name="Imacron" unicode="&#x12a;" horiz-adv-x="343" 
d="M84 0v715h175v-715h-175zM35 782v112h275v-112h-275z" />
    <glyph glyph-name="imacron" unicode="&#x12b;" horiz-adv-x="301" 
d="M64 0v515h173v-515h-173zM13 586v112h275v-112h-275z" />
    <glyph glyph-name="Ibreve" unicode="&#x12c;" horiz-adv-x="343" 
d="M84 0v715h175v-715h-175zM172 756q-73 0 -123.5 39t-50.5 106v10h117v-11q0 -28 17 -43t40 -15t40 15t17 43v11h117v-10q0 -67 -50.5 -106t-123.5 -39z" />
    <glyph glyph-name="ibreve" unicode="&#x12d;" horiz-adv-x="301" 
d="M64 0v515h173v-515h-173zM150 560q-73 0 -123.5 39t-50.5 106v10h117v-11q0 -28 17 -43t40 -15t40 15t17 43v11h117v-10q0 -67 -50.5 -106t-123.5 -39z" />
    <glyph glyph-name="Iogonek" unicode="&#x12e;" horiz-adv-x="343" 
d="M84 0v715h175v-715q-43 -40 -43 -61q0 -10 9.5 -16t18.5 -7l10 -2l-42 -124q-5 1 -14 2t-32 8t-40.5 17t-32 29t-14.5 43q0 54 66 109v2h-61z" />
    <glyph glyph-name="iogonek" unicode="&#x12f;" horiz-adv-x="301" 
d="M64 0v515h173v-515q-43 -40 -43 -61q0 -10 9.5 -16t18.5 -7l10 -2l-42 -124q-5 1 -14 2t-32 8t-40.5 17t-32 29t-14.5 43q0 54 66 109v2h-59zM66 580v135h169v-135h-169z" />
    <glyph glyph-name="Idotaccent" unicode="&#x130;" horiz-adv-x="343" 
d="M84 0v715h175v-715h-175zM101 779v132h143v-132h-143z" />
    <glyph glyph-name="dotlessi" unicode="&#x131;" horiz-adv-x="301" 
d="M64 0v515h173v-515h-173z" />
    <glyph glyph-name="IJ" unicode="&#x132;" horiz-adv-x="696" 
d="M327 -4v158q42 0 79 27.5t37 88.5v445h179v-447q0 -65 -18.5 -115t-47 -79t-69 -47.5t-78.5 -24.5t-82 -6zM84 0v715h175v-715h-175z" />
    <glyph glyph-name="ij" unicode="&#x133;" horiz-adv-x="602" 
d="M66 580v135h169v-135h-169zM64 0v515h173v-515h-173zM367 580v135h169v-135h-169zM365 515h173v-528q0 -49 -18 -86.5t-43.5 -57.5t-61 -32t-63 -15.5t-56.5 -3.5l-46 3v144q9 -1 22 -1q93 0 93 66v511z" />
    <glyph glyph-name="Jcircumflex" unicode="&#x134;" horiz-adv-x="575" 
d="M21 220v52h175v-38q0 -40 14 -60q16 -26 52 -26q29 0 46 19t17 57v341h-192v150h367v-495q0 -111 -71 -171.5t-169 -60.5q-97 0 -168 61t-71 171zM129 761l99 150h168l99 -150h-135l-47 82h-2l-47 -82h-135z" />
    <glyph glyph-name="jcircumflex" unicode="&#x135;" horiz-adv-x="301" 
d="M64 515h173v-528q0 -49 -18 -86.5t-43.5 -57.5t-61 -32t-63 -15.5t-56.5 -3.5l-46 3v144q9 -1 22 -1q93 0 93 66v511zM-24 565l99 150h152l99 -150h-127l-47 82h-2l-47 -82h-127z" />
    <glyph glyph-name="Kcommaaccent" unicode="&#x136;" horiz-adv-x="692" 
d="M84 0v715h175v-276h72l148 276h188l-193 -342v-2l204 -371h-196l-151 290h-72v-290h-175zM280 -49h136q7 -29 7 -58q0 -47 -28 -103h-123q20 58 20 93q0 33 -12 68z" />
    <glyph glyph-name="kcommaaccent" unicode="&#x137;" horiz-adv-x="599" 
d="M64 0v715h173v-370h49l102 170h188l-151 -234v-2l172 -279h-197l-109 200h-54v-200h-173zM239 -49h136q7 -29 7 -58q0 -47 -28 -103h-123q20 58 20 93q0 33 -12 68z" />
    <glyph glyph-name="kgreenlandic" unicode="&#x138;" horiz-adv-x="600" 
d="M64 0v515h173v-180h49l105 180h188l-154 -244v-2l166 -269h-200l-100 190h-54v-190h-173z" />
    <glyph glyph-name="Lacute" unicode="&#x139;" horiz-adv-x="563" 
d="M84 0v715h175v-565h292v-150h-467zM100 761l81 150h171l-118 -150h-134z" />
    <glyph glyph-name="lacute" unicode="&#x13a;" horiz-adv-x="323" 
d="M57 190v525h173v-502q0 -38 9.5 -52t38.5 -14l21 1v-150q-24 -3 -52 -3q-40 0 -69.5 6.5t-59 25.5t-45.5 60t-16 103zM72 761l81 150h171l-118 -150h-134z" />
    <glyph glyph-name="Lcommaaccent" unicode="&#x13b;" horiz-adv-x="563" 
d="M84 0v715h175v-565h292v-150h-467zM251 -49h136q7 -29 7 -58q0 -47 -28 -103h-123q20 58 20 93q0 33 -12 68z" />
    <glyph glyph-name="lcommaaccent" unicode="&#x13c;" horiz-adv-x="323" 
d="M57 190v525h173v-502q0 -38 9.5 -52t38.5 -14l21 1v-150q-24 -3 -52 -3q-40 0 -69.5 6.5t-59 25.5t-45.5 60t-16 103zM113 -49h136q7 -29 7 -58q0 -47 -28 -103h-123q20 58 20 93q0 33 -12 68z" />
    <glyph glyph-name="Lcaron" unicode="&#x13d;" horiz-adv-x="563" 
d="M84 0v715h175v-565h292v-150h-467zM329 715h136q7 -29 7 -58q0 -47 -28 -103h-123q20 58 20 93q0 33 -12 68z" />
    <glyph glyph-name="lcaron" unicode="&#x13e;" horiz-adv-x="353" 
d="M57 190v525h173v-502q0 -38 9.5 -52t38.5 -14l21 1v-150q-24 -3 -52 -3q-40 0 -69.5 6.5t-59 25.5t-45.5 60t-16 103zM277 715h136q7 -29 7 -58q0 -47 -28 -103h-123q20 58 20 93q0 33 -12 68z" />
    <glyph glyph-name="Ldot" unicode="&#x13f;" horiz-adv-x="563" 
d="M84 0v715h175v-565h292v-150h-467zM352 315v164h158v-164h-158z" />
    <glyph glyph-name="ldot" unicode="&#x140;" horiz-adv-x="461" 
d="M57 190v525h173v-502q0 -38 9.5 -52t38.5 -14l21 1v-150q-24 -3 -52 -3q-40 0 -69.5 6.5t-59 25.5t-45.5 60t-16 103zM312 315v164h158v-164h-158z" />
    <glyph glyph-name="Lslash" unicode="&#x141;" horiz-adv-x="589" 
d="M58 175v166l52 30v344h175v-244l101 58v-166l-101 -58v-155h292v-150h-467v205z" />
    <glyph glyph-name="lslash" unicode="&#x142;" horiz-adv-x="373" 
d="M40 195v166l50 29v325h173v-226l69 40v-166l-69 -40v-110q0 -38 9.5 -52t38.5 -14l21 1v-150q-24 -3 -52 -3q-40 0 -69.5 6.5t-59 25.5t-45.5 60t-16 103v34z" />
    <glyph glyph-name="Nacute" unicode="&#x143;" horiz-adv-x="772" 
d="M84 0v715h177l198 -334q12 -21 27 -51.5t24 -50.5l9 -20h2q-8 77 -8 122v334h175v-715h-176l-199 333q-12 21 -27 51.5t-24 50.5l-9 20h-2q8 -77 8 -122v-333h-175zM314 761l81 150h171l-118 -150h-134z" />
    <glyph glyph-name="nacute" unicode="&#x144;" horiz-adv-x="636" 
d="M64 0v515h166v-45l-2 -32h2q53 89 164 89q185 0 185 -193v-334h-173v302q0 68 -57 68q-77 0 -102 -74q-10 -29 -10 -68v-228h-173zM253 565l81 150h171l-118 -150h-134z" />
    <glyph glyph-name="Ncommaaccent" unicode="&#x145;" horiz-adv-x="772" 
d="M84 0v715h177l198 -334q12 -21 27 -51.5t24 -50.5l9 -20h2q-8 77 -8 122v334h175v-715h-176l-199 333q-12 21 -27 51.5t-24 50.5l-9 20h-2q8 -77 8 -122v-333h-175zM315 -49h136q7 -29 7 -58q0 -47 -28 -103h-123q20 58 20 93q0 33 -12 68z" />
    <glyph glyph-name="ncommaaccent" unicode="&#x146;" horiz-adv-x="636" 
d="M64 0v515h166v-45l-2 -32h2q53 89 164 89q185 0 185 -193v-334h-173v302q0 68 -57 68q-77 0 -102 -74q-10 -29 -10 -68v-228h-173zM247 -49h136q7 -29 7 -58q0 -47 -28 -103h-123q20 58 20 93q0 33 -12 68z" />
    <glyph glyph-name="Ncaron" unicode="&#x147;" horiz-adv-x="772" 
d="M84 0v715h177l198 -334q12 -21 27 -51.5t24 -50.5l9 -20h2q-8 77 -8 122v334h175v-715h-176l-199 333q-12 21 -27 51.5t-24 50.5l-9 20h-2q8 -77 8 -122v-333h-175zM302 761l-99 150h135l47 -82h2l47 82h135l-99 -150h-168z" />
    <glyph glyph-name="ncaron" unicode="&#x148;" horiz-adv-x="636" 
d="M64 0v515h166v-45l-2 -32h2q53 89 164 89q185 0 185 -193v-334h-173v302q0 68 -57 68q-77 0 -102 -74q-10 -29 -10 -68v-228h-173zM241 565l-99 150h135l47 -82h2l47 82h135l-99 -150h-168z" />
    <glyph glyph-name="napostrophe" unicode="&#x149;" horiz-adv-x="636" 
d="M64 0v515h166v-45l-2 -32h2q53 89 164 89q185 0 185 -193v-334h-173v302q0 68 -57 68q-77 0 -102 -74q-10 -29 -10 -68v-228h-173zM-30 715h136q7 -29 7 -58q0 -47 -28 -103h-123q20 58 20 93q0 33 -12 68z" />
    <glyph glyph-name="Eng" unicode="&#x14a;" horiz-adv-x="772" 
d="M84 0v715h177l198 -334q12 -21 27 -51.5t24 -50.5l9 -20h2q-8 77 -8 122v334h175v-648q0 -65 -18.5 -115t-47 -79t-69 -47.5t-78.5 -24.5t-82 -6v158q27 0 65 16t48 41l-193 323q-12 21 -27 51.5t-24 50.5l-9 20h-2q8 -77 8 -122v-333h-175z" />
    <glyph glyph-name="eng" unicode="&#x14b;" horiz-adv-x="636" 
d="M64 0v515h166v-65l-1 -12h2q53 89 163 89q185 0 185 -193v-347q0 -49 -18 -86.5t-43.5 -57.5t-61 -32t-63 -15.5t-56.5 -3.5l-46 3v144q9 -1 22 -1q93 0 93 66v298q0 68 -57 68q-77 0 -102 -74q-10 -29 -10 -68v-228h-173z" />
    <glyph glyph-name="Omacron" unicode="&#x14c;" horiz-adv-x="818" 
d="M35 362q0 155 106.5 260t267.5 105t267.5 -105t106.5 -260q0 -159 -106.5 -266.5t-267.5 -107.5t-267.5 107.5t-106.5 266.5zM216 362q0 -91 56 -152.5t137 -61.5t137 61.5t56 152.5q0 87 -56 146t-137 59t-137 -59t-56 -146zM272 782v112h275v-112h-275z" />
    <glyph glyph-name="omacron" unicode="&#x14d;" horiz-adv-x="636" 
d="M26 256q0 119 84 195t207 76q124 0 208.5 -75.5t84.5 -195.5q0 -119 -84 -193.5t-208 -74.5t-208 74.5t-84 193.5zM201 256q0 -56 34 -90t83 -34t83 34t34 90q0 57 -34 92t-83 35t-83 -35t-34 -92zM181 586v112h275v-112h-275z" />
    <glyph glyph-name="Obreve" unicode="&#x14e;" horiz-adv-x="818" 
d="M35 362q0 155 106.5 260t267.5 105t267.5 -105t106.5 -260q0 -159 -106.5 -266.5t-267.5 -107.5t-267.5 107.5t-106.5 266.5zM216 362q0 -91 56 -152.5t137 -61.5t137 61.5t56 152.5q0 87 -56 146t-137 59t-137 -59t-56 -146zM409 756q-73 0 -123.5 39t-50.5 106v10h117
v-11q0 -28 17 -43t40 -15t40 15t17 43v11h117v-10q0 -67 -50.5 -106t-123.5 -39z" />
    <glyph glyph-name="obreve" unicode="&#x14f;" horiz-adv-x="636" 
d="M26 256q0 119 84 195t207 76q124 0 208.5 -75.5t84.5 -195.5q0 -119 -84 -193.5t-208 -74.5t-208 74.5t-84 193.5zM201 256q0 -56 34 -90t83 -34t83 34t34 90q0 57 -34 92t-83 35t-83 -35t-34 -92zM318 560q-73 0 -123.5 39t-50.5 106v10h117v-11q0 -28 17 -43t40 -15
t40 15t17 43v11h117v-10q0 -67 -50.5 -106t-123.5 -39z" />
    <glyph glyph-name="Ohungarumlaut" unicode="&#x150;" horiz-adv-x="818" 
d="M35 362q0 155 106.5 260t267.5 105t267.5 -105t106.5 -260q0 -159 -106.5 -266.5t-267.5 -107.5t-267.5 107.5t-106.5 266.5zM216 362q0 -91 56 -152.5t137 -61.5t137 61.5t56 152.5q0 87 -56 146t-137 59t-137 -59t-56 -146zM435 761l81 150h163l-118 -150h-126z
M227 761l76 150h139l-79 -150h-136z" />
    <glyph glyph-name="ohungarumlaut" unicode="&#x151;" horiz-adv-x="636" 
d="M26 256q0 119 84 195t207 76q124 0 208.5 -75.5t84.5 -195.5q0 -119 -84 -193.5t-208 -74.5t-208 74.5t-84 193.5zM201 256q0 -56 34 -90t83 -34t83 34t34 90q0 57 -34 92t-83 35t-83 -35t-34 -92zM344 565l81 150h163l-118 -150h-126zM136 565l76 150h139l-79 -150h-136
z" />
    <glyph glyph-name="OE" unicode="&#x152;" horiz-adv-x="992" 
d="M32 359q0 153 112.5 258.5t271.5 105.5q37 0 75 -4t57 -4h388v-150h-273v-130h218v-150h-218v-135h288v-150h-403q-19 0 -57 -4t-75 -4q-159 0 -271.5 107t-112.5 260zM213 359q0 -90 59 -154t144 -64q20 0 38 1.5t26 3.5l8 2v419q-28 7 -72 7q-85 0 -144 -62.5
t-59 -152.5z" />
    <glyph glyph-name="oe" unicode="&#x153;" horiz-adv-x="970" 
d="M26 256q0 119 82 195t203 76q68 0 113.5 -20.5t85.5 -59.5h2q35 39 78 59.5t112 20.5q111 0 174.5 -69.5t63.5 -179.5l-4 -54h-324q9 -43 42.5 -67.5t76.5 -24.5q33 0 68.5 13t54.5 26l19 13l64 -121q-9 -8 -26.5 -20.5t-75 -33.5t-118.5 -21q-73 0 -118.5 22t-82.5 63
h-2q-40 -41 -86.5 -63t-115.5 -22q-122 0 -204 74.5t-82 193.5zM615 323h151q-1 29 -19 51.5t-47 22.5q-67 0 -85 -74zM200 256q0 -56 34 -90t83 -34t83 34t34 90q0 57 -34 92t-83 35t-83 -35t-34 -92z" />
    <glyph glyph-name="Racute" unicode="&#x154;" horiz-adv-x="685" 
d="M84 0v715h249q95 0 139 -17q62 -24 97 -77.5t35 -130.5q0 -60 -28 -114.5t-79 -80.5v-2q10 -13 27 -43l139 -250h-195l-127 241h-82v-241h-175zM259 391h76q43 0 67 23t24 65q0 44 -23 65t-85 21h-59v-174zM254 761l81 150h171l-118 -150h-134z" />
    <glyph glyph-name="racute" unicode="&#x155;" horiz-adv-x="430" 
d="M64 0v515h166v-87l-2 -32h2q17 54 62.5 91t101.5 37l20 -2v-170q-14 3 -35 3q-104 0 -133 -90q-9 -29 -9 -70v-195h-173zM184 564l81 150h171l-118 -150h-134z" />
    <glyph glyph-name="Rcommaaccent" unicode="&#x156;" horiz-adv-x="685" 
d="M84 0v715h249q95 0 139 -17q62 -24 97 -77.5t35 -130.5q0 -60 -28 -114.5t-79 -80.5v-2q10 -13 27 -43l139 -250h-195l-127 241h-82v-241h-175zM259 391h76q43 0 67 23t24 65q0 44 -23 65t-85 21h-59v-174zM276 -49h136q7 -29 7 -58q0 -47 -28 -103h-123q20 58 20 93
q0 33 -12 68z" />
    <glyph glyph-name="rcommaaccent" unicode="&#x157;" horiz-adv-x="430" 
d="M64 0v515h166v-87l-2 -32h2q17 54 62.5 91t101.5 37l20 -2v-170q-14 3 -35 3q-104 0 -133 -90q-9 -29 -9 -70v-195h-173zM80 -49h136q7 -29 7 -58q0 -47 -28 -103h-123q20 58 20 93q0 33 -12 68z" />
    <glyph glyph-name="Rcaron" unicode="&#x158;" horiz-adv-x="685" 
d="M84 0v715h249q95 0 139 -17q62 -24 97 -77.5t35 -130.5q0 -60 -28 -114.5t-79 -80.5v-2q10 -13 27 -43l139 -250h-195l-127 241h-82v-241h-175zM259 391h76q43 0 67 23t24 65q0 44 -23 65t-85 21h-59v-174zM242 761l-99 150h135l47 -82h2l47 82h135l-99 -150h-168z" />
    <glyph glyph-name="rcaron" unicode="&#x159;" horiz-adv-x="430" 
d="M64 0v515h166v-87l-2 -32h2q17 54 62.5 91t101.5 37l20 -2v-170q-14 3 -35 3q-104 0 -133 -90q-9 -29 -9 -70v-195h-173zM172 564l-99 150h135l47 -82h2l47 82h135l-99 -150h-168z" />
    <glyph glyph-name="Sacute" unicode="&#x15a;" horiz-adv-x="580" 
d="M31 90l92 133q9 -8 25 -20.5t61 -33t85 -20.5q31 0 53 13.5t22 43.5q0 19 -24 36.5t-59.5 30.5t-77.5 33.5t-77.5 44t-59.5 64.5t-24 93q0 97 72.5 158t180.5 61q68 0 125.5 -20.5t80.5 -40.5l24 -20l-74 -143q-8 7 -22.5 17.5t-56 28t-79.5 17.5q-31 0 -53.5 -14
t-22.5 -42q0 -24 33 -43t80.5 -37t95 -42t80.5 -69.5t33 -108.5q0 -93 -68 -157.5t-184 -64.5q-47 0 -91 10.5t-73.5 25.5t-52.5 30t-33 26zM221 761l81 150h171l-118 -150h-134z" />
    <glyph glyph-name="sacute" unicode="&#x15b;" horiz-adv-x="471" 
d="M24 64l74 116q6 -6 17.5 -14.5t46 -23t67.5 -14.5q51 0 51 24q0 12 -25 23.5t-60 25t-70.5 32.5t-60.5 54.5t-25 82.5q0 71 60.5 114t151.5 43q34 0 65 -6t51 -14.5t35.5 -17.5t22.5 -15l7 -6l-59 -123q-6 5 -16 12t-42 18.5t-64 11.5q-51 0 -51 -25q0 -10 25 -20.5
t60 -23.5t70.5 -31.5t60.5 -54t25 -81.5q0 -69 -57.5 -116t-153.5 -47q-57 0 -108.5 19t-74.5 38zM162 565l81 150h171l-118 -150h-134z" />
    <glyph glyph-name="Scircumflex" unicode="&#x15c;" horiz-adv-x="580" 
d="M31 90l92 133q9 -8 25 -20.5t61 -33t85 -20.5q31 0 53 13.5t22 43.5q0 19 -24 36.5t-59.5 30.5t-77.5 33.5t-77.5 44t-59.5 64.5t-24 93q0 97 72.5 158t180.5 61q68 0 125.5 -20.5t80.5 -40.5l24 -20l-74 -143q-8 7 -22.5 17.5t-56 28t-79.5 17.5q-31 0 -53.5 -14
t-22.5 -42q0 -24 33 -43t80.5 -37t95 -42t80.5 -69.5t33 -108.5q0 -93 -68 -157.5t-184 -64.5q-47 0 -91 10.5t-73.5 25.5t-52.5 30t-33 26zM110 761l99 150h168l99 -150h-135l-47 82h-2l-47 -82h-135z" />
    <glyph glyph-name="scircumflex" unicode="&#x15d;" horiz-adv-x="471" 
d="M24 64l74 116q6 -6 17.5 -14.5t46 -23t67.5 -14.5q51 0 51 24q0 12 -25 23.5t-60 25t-70.5 32.5t-60.5 54.5t-25 82.5q0 71 60.5 114t151.5 43q34 0 65 -6t51 -14.5t35.5 -17.5t22.5 -15l7 -6l-59 -123q-6 5 -16 12t-42 18.5t-64 11.5q-51 0 -51 -25q0 -10 25 -20.5
t60 -23.5t70.5 -31.5t60.5 -54t25 -81.5q0 -69 -57.5 -116t-153.5 -47q-57 0 -108.5 19t-74.5 38zM52 565l99 150h168l99 -150h-135l-47 82h-2l-47 -82h-135z" />
    <glyph glyph-name="Scedilla" unicode="&#x15e;" horiz-adv-x="580" 
d="M31 90l92 133q9 -8 25 -20.5t61 -33t85 -20.5q31 0 53 13.5t22 43.5q0 19 -24 36.5t-59.5 30.5t-77.5 33.5t-77.5 44t-59.5 64.5t-24 93q0 97 72.5 158t180.5 61q68 0 125.5 -20.5t80.5 -40.5l24 -20l-74 -143q-8 7 -22.5 17.5t-56 28t-79.5 17.5q-31 0 -53.5 -14
t-22.5 -42q0 -24 33 -43t80.5 -37t95 -42t80.5 -69.5t33 -108.5q0 -85 -56.5 -146.5t-154.5 -72.5l-6 -27q75 -8 75 -80q0 -50 -34 -72t-83 -22q-17 0 -34.5 2t-26.5 4l-10 3v87q23 -10 45 -10q38 0 38 23q0 21 -41 21l-26 -2l22 72q-40 4 -77.5 15.5t-62.5 25.5t-44 27.5
t-28 22.5z" />
    <glyph glyph-name="scedilla" unicode="&#x15f;" horiz-adv-x="471" 
d="M24 64l74 116q6 -6 17.5 -14.5t46 -23t67.5 -14.5q51 0 51 24q0 12 -25 23.5t-60 25t-70.5 32.5t-60.5 54.5t-25 82.5q0 71 60.5 114t151.5 43q34 0 65 -6t51 -14.5t35.5 -17.5t22.5 -15l7 -6l-59 -123q-6 5 -16 12t-42 18.5t-64 11.5q-51 0 -51 -25q0 -10 25 -20.5
t60 -23.5t70.5 -31.5t60.5 -54t25 -81.5q0 -62 -47 -107t-128 -54l-6 -26q75 -8 75 -80q0 -50 -34 -72t-83 -22q-17 0 -34.5 2t-27.5 4l-9 3v87q23 -10 45 -10q38 0 38 23q0 21 -41 21l-26 -2l23 73q-45 6 -85.5 24.5t-58.5 33.5z" />
    <glyph glyph-name="Scaron" unicode="&#x160;" horiz-adv-x="580" 
d="M31 90l92 133q9 -8 25 -20.5t61 -33t85 -20.5q31 0 53 13.5t22 43.5q0 19 -24 36.5t-59.5 30.5t-77.5 33.5t-77.5 44t-59.5 64.5t-24 93q0 97 72.5 158t180.5 61q68 0 125.5 -20.5t80.5 -40.5l24 -20l-74 -143q-8 7 -22.5 17.5t-56 28t-79.5 17.5q-31 0 -53.5 -14
t-22.5 -42q0 -24 33 -43t80.5 -37t95 -42t80.5 -69.5t33 -108.5q0 -93 -68 -157.5t-184 -64.5q-47 0 -91 10.5t-73.5 25.5t-52.5 30t-33 26zM209 761l-99 150h135l47 -82h2l47 82h135l-99 -150h-168z" />
    <glyph glyph-name="scaron" unicode="&#x161;" horiz-adv-x="471" 
d="M24 64l74 116q6 -6 17.5 -14.5t46 -23t67.5 -14.5q51 0 51 24q0 12 -25 23.5t-60 25t-70.5 32.5t-60.5 54.5t-25 82.5q0 71 60.5 114t151.5 43q34 0 65 -6t51 -14.5t35.5 -17.5t22.5 -15l7 -6l-59 -123q-6 5 -16 12t-42 18.5t-64 11.5q-51 0 -51 -25q0 -10 25 -20.5
t60 -23.5t70.5 -31.5t60.5 -54t25 -81.5q0 -69 -57.5 -116t-153.5 -47q-57 0 -108.5 19t-74.5 38zM151 565l-99 150h135l47 -82h2l47 82h135l-99 -150h-168z" />
    <glyph glyph-name="Tcommaaccent" unicode="&#x162;" horiz-adv-x="617" 
d="M221 0v565h-217v150h609v-150h-217v-565h-47l-9 -36q75 -8 75 -80q0 -50 -34 -72t-83 -22q-17 0 -34.5 2t-27.5 4l-9 3v87q23 -10 45 -10q38 0 38 23q0 21 -41 21l-26 -2l26 82h-48z" />
    <glyph glyph-name="tcommaaccent" unicode="&#x163;" horiz-adv-x="416" 
d="M91 190v181h-66v135h71v148h168v-148h108v-135h-108v-158q0 -66 92 -66l23 1v-150q-19 -3 -47 -3q-33 0 -62 5l-8 -36q75 -8 75 -80q0 -50 -34 -72t-83 -22q-17 0 -34.5 2t-27.5 4l-9 3v87q23 -10 45 -10q38 0 38 23q0 21 -41 21l-26 -2l32 101q-106 46 -106 171z" />
    <glyph glyph-name="Tcaron" unicode="&#x164;" horiz-adv-x="617" 
d="M221 0v565h-217v150h609v-150h-217v-565h-175zM224 761l-99 150h135l47 -82h2l47 82h135l-99 -150h-168z" />
    <glyph glyph-name="tcaron" unicode="&#x165;" horiz-adv-x="415" 
d="M90 190v181h-66v135h71v148h168v-148h108v-135h-108v-158q0 -66 92 -66l23 1v-150q-19 -3 -47 -3q-24 0 -46.5 2.5t-52 9.5t-53 21t-44.5 34.5t-33 53.5t-12 74zM305 715h136q7 -28 7 -54q0 -44 -28 -97h-123q20 55 20 87t-12 64z" />
    <glyph glyph-name="Tbar" unicode="&#x166;" horiz-adv-x="640" 
d="M90 272v127h142v166h-217v150h609v-150h-217v-166h148v-127h-148v-272h-175v272h-142z" />
    <glyph glyph-name="tbar" unicode="&#x167;" horiz-adv-x="438" 
d="M30 209v107h77v55h-66v135h71v148h168v-148h108v-135h-108v-55h97v-107h-97v-5q0 -32 29 -44.5t63 -12.5l23 1v-150q-19 -3 -47 -3q-24 0 -46.5 2.5t-52 9.5t-53 21t-44.5 34.5t-33 53.5t-12 74v19h-77z" />
    <glyph glyph-name="Utilde" unicode="&#x168;" horiz-adv-x="746" 
d="M74 263v452h175v-452q0 -55 33.5 -85t90.5 -30t90.5 30t33.5 85v452h175v-452q0 -122 -82 -198.5t-216 -76.5q-135 0 -217.5 76.5t-82.5 198.5zM172 761q0 153 128 153q29 0 52 -15t41 -30t33 -15q37 0 37 57h112q0 -153 -128 -153q-29 0 -52 15t-41 30t-33 15
q-37 0 -37 -57h-112z" />
    <glyph glyph-name="utilde" unicode="&#x169;" horiz-adv-x="631" 
d="M57 181v334h173v-302q0 -68 55 -68q53 0 81 40.5t28 101.5v228h173v-515h-166v45l2 32h-2q-21 -41 -65 -65t-96 -24q-84 0 -133.5 45.5t-49.5 147.5zM111 565q0 153 128 153q29 0 52 -15t41 -30t33 -15q37 0 37 57h112q0 -153 -128 -153q-29 0 -52 15t-41 30t-33 15
q-37 0 -37 -57h-112z" />
    <glyph glyph-name="Umacron" unicode="&#x16a;" horiz-adv-x="746" 
d="M74 263v452h175v-452q0 -55 33.5 -85t90.5 -30t90.5 30t33.5 85v452h175v-452q0 -122 -82 -198.5t-216 -76.5q-135 0 -217.5 76.5t-82.5 198.5zM236 782v112h275v-112h-275z" />
    <glyph glyph-name="umacron" unicode="&#x16b;" horiz-adv-x="631" 
d="M57 181v334h173v-302q0 -68 55 -68q53 0 81 40.5t28 101.5v228h173v-515h-166v45l2 32h-2q-21 -41 -65 -65t-96 -24q-84 0 -133.5 45.5t-49.5 147.5zM175 586v112h275v-112h-275z" />
    <glyph glyph-name="Ubreve" unicode="&#x16c;" horiz-adv-x="746" 
d="M74 263v452h175v-452q0 -55 33.5 -85t90.5 -30t90.5 30t33.5 85v452h175v-452q0 -122 -82 -198.5t-216 -76.5q-135 0 -217.5 76.5t-82.5 198.5zM373 756q-73 0 -123.5 39t-50.5 106v10h117v-11q0 -28 17 -43t40 -15t40 15t17 43v11h117v-10q0 -67 -50.5 -106t-123.5 -39z
" />
    <glyph glyph-name="ubreve" unicode="&#x16d;" horiz-adv-x="631" 
d="M57 181v334h173v-302q0 -68 55 -68q53 0 81 40.5t28 101.5v228h173v-515h-166v45l2 32h-2q-21 -41 -65 -65t-96 -24q-84 0 -133.5 45.5t-49.5 147.5zM312 560q-73 0 -123.5 39t-50.5 106v10h117v-11q0 -28 17 -43t40 -15t40 15t17 43v11h117v-10q0 -67 -50.5 -106
t-123.5 -39z" />
    <glyph glyph-name="Uring" unicode="&#x16e;" horiz-adv-x="746" 
d="M74 263v452h175v-452q0 -55 33.5 -85t90.5 -30t90.5 30t33.5 85v452h175v-452q0 -122 -82 -198.5t-216 -76.5q-135 0 -217.5 76.5t-82.5 198.5zM373 747q-44 0 -76.5 22t-32.5 63t32.5 63.5t76.5 22.5t77 -22.5t33 -63.5t-33 -63t-77 -22zM373 797q16 0 25.5 9.5
t9.5 25.5t-9.5 26t-25.5 10q-15 0 -24.5 -10t-9.5 -26t9 -25.5t25 -9.5z" />
    <glyph glyph-name="uring" unicode="&#x16f;" horiz-adv-x="631" 
d="M57 181v334h173v-302q0 -68 55 -68q53 0 81 40.5t28 101.5v228h173v-515h-166v45l2 32h-2q-21 -41 -65 -65t-96 -24q-84 0 -133.5 45.5t-49.5 147.5zM312 551q-44 0 -76.5 22t-32.5 63t32.5 63.5t76.5 22.5t77 -22.5t33 -63.5t-33 -63t-77 -22zM312 601q16 0 25.5 9.5
t9.5 25.5t-9.5 26t-25.5 10q-15 0 -24.5 -10t-9.5 -26t9 -25.5t25 -9.5z" />
    <glyph glyph-name="Uhungarumlaut" unicode="&#x170;" horiz-adv-x="746" 
d="M74 263v452h175v-452q0 -55 33.5 -85t90.5 -30t90.5 30t33.5 85v452h175v-452q0 -122 -82 -198.5t-216 -76.5q-135 0 -217.5 76.5t-82.5 198.5zM399 761l81 150h163l-118 -150h-126zM191 761l76 150h139l-79 -150h-136z" />
    <glyph glyph-name="uhungarumlaut" unicode="&#x171;" horiz-adv-x="631" 
d="M57 181v334h173v-302q0 -68 55 -68q53 0 81 40.5t28 101.5v228h173v-515h-166v45l2 32h-2q-21 -41 -65 -65t-96 -24q-84 0 -133.5 45.5t-49.5 147.5zM338 565l81 150h163l-118 -150h-126zM130 565l76 150h139l-79 -150h-136z" />
    <glyph glyph-name="Uogonek" unicode="&#x172;" horiz-adv-x="746" 
d="M317 -111q0 54 51 97v2q-133 2 -213.5 78t-80.5 197v452h175v-452q0 -55 33.5 -85t90.5 -30t90.5 30t33.5 85v452h175v-452q0 -47 -11 -85t-34 -67.5t-40.5 -45.5t-47.5 -39q-5 -4 -18.5 -14t-18.5 -14l-15 -12t-14 -12.5l-9.5 -11t-7.5 -12t-2 -11.5q0 -10 9.5 -16
t18.5 -7l10 -2l-42 -124q-5 1 -14 2t-32 8t-40.5 17t-32 29t-14.5 43z" />
    <glyph glyph-name="uogonek" unicode="&#x173;" horiz-adv-x="631" 
d="M387 -111q0 54 66 109v2h-52v45l2 32h-2q-21 -41 -65 -65t-96 -24q-84 0 -133.5 45.5t-49.5 147.5v334h173v-302q0 -68 55 -68q53 0 81 40.5t28 101.5v228h173v-515q-43 -40 -43 -61q0 -10 9.5 -16t18.5 -7l10 -2l-42 -124q-5 1 -14 2t-32 8t-40.5 17t-32 29t-14.5 43z
" />
    <glyph glyph-name="Wcircumflex" unicode="&#x174;" horiz-adv-x="998" 
d="M195 0l-174 715h184l90 -447q4 -20 6.5 -38.5t2.5 -27.5v-9h2q1 31 12 75l110 447h141l107 -447q5 -20 8 -38.5t4 -27.5v-9h2q0 31 9 75l98 447h181l-181 -715h-195l-90 361l-14 84h-2q-3 -38 -14 -84l-90 -361h-197zM313 761l99 150h168l99 -150h-135l-47 82h-2l-47 -82
h-135z" />
    <glyph glyph-name="wcircumflex" unicode="&#x175;" horiz-adv-x="840" 
d="M157 0l-144 515h182l64 -304l6 -54h2q2 26 9 54l71 304h148l71 -304l8 -54h2q1 26 7 54l64 304h180l-144 -515h-193l-58 238l-10 55h-2q-3 -27 -10 -55l-58 -238h-195zM238 565l99 150h168l99 -150h-135l-47 82h-2l-47 -82h-135z" />
    <glyph glyph-name="Ycircumflex" unicode="&#x176;" horiz-adv-x="639" 
d="M232 0v293l-236 422h199l81 -172l43 -103h2q20 54 43 103l80 172h199l-236 -422v-293h-175zM137 761l99 150h168l99 -150h-135l-47 82h-2l-47 -82h-135z" />
    <glyph glyph-name="ycircumflex" unicode="&#x177;" horiz-adv-x="546" 
d="M1 -174l55 127q28 -19 53 -19q62 0 83 52l10 24l-219 505h196l76 -237l19 -80h2q10 49 17 77l65 240h189l-211 -570q-30 -80 -88.5 -117.5t-126.5 -37.5q-30 0 -60 9t-45 18zM92 564l99 150h168l99 -150h-135l-47 82h-2l-47 -82h-135z" />
    <glyph glyph-name="Ydieresis" unicode="&#x178;" horiz-adv-x="639" 
d="M232 0v293l-236 422h199l81 -172l43 -103h2q20 54 43 103l80 172h199l-236 -422v-293h-175zM362 771v140h126v-140h-126zM153 771v140h126v-140h-126z" />
    <glyph glyph-name="Zacute" unicode="&#x179;" horiz-adv-x="638" 
d="M38 0v110l276 391q14 20 27.5 36t20.5 23l7 6v2q-23 -3 -55 -3h-263v150h540v-108l-277 -393q-14 -20 -27.5 -36t-20.5 -22l-7 -7v-2q23 3 55 3h282v-150h-558zM257 761l81 150h171l-118 -150h-134z" />
    <glyph glyph-name="zacute" unicode="&#x17a;" horiz-adv-x="543" 
d="M34 0v86l189 237l23 26t16 17l6 4v2q-13 -2 -45 -2h-181v145h460v-87l-188 -237q-11 -14 -22.5 -25.5t-17.5 -16.5l-6 -5v-2q13 3 46 3h193v-145h-473zM194 565l81 150h171l-118 -150h-134z" />
    <glyph glyph-name="Zdotaccent" unicode="&#x17b;" horiz-adv-x="638" 
d="M38 0v110l276 391q14 20 27.5 36t20.5 23l7 6v2q-23 -3 -55 -3h-263v150h540v-108l-277 -393q-14 -20 -27.5 -36t-20.5 -22l-7 -7v-2q23 3 55 3h282v-150h-558zM258 779v132h143v-132h-143z" />
    <glyph glyph-name="zdotaccent" unicode="&#x17c;" horiz-adv-x="543" 
d="M34 0v86l189 237l23 26t16 17l6 4v2q-13 -2 -45 -2h-181v145h460v-87l-188 -237q-11 -14 -22.5 -25.5t-17.5 -16.5l-6 -5v-2q13 3 46 3h193v-145h-473zM195 583v132h143v-132h-143z" />
    <glyph glyph-name="Zcaron" unicode="&#x17d;" horiz-adv-x="638" 
d="M38 0v110l276 391q14 20 27.5 36t20.5 23l7 6v2q-23 -3 -55 -3h-263v150h540v-108l-277 -393q-14 -20 -27.5 -36t-20.5 -22l-7 -7v-2q23 3 55 3h282v-150h-558zM245 761l-99 150h135l47 -82h2l47 82h135l-99 -150h-168z" />
    <glyph glyph-name="zcaron" unicode="&#x17e;" horiz-adv-x="543" 
d="M34 0v86l189 237l23 26t16 17l6 4v2q-13 -2 -45 -2h-181v145h460v-87l-188 -237q-11 -14 -22.5 -25.5t-17.5 -16.5l-6 -5v-2q13 3 46 3h193v-145h-473zM182 565l-99 150h135l47 -82h2l47 82h135l-99 -150h-168z" />
    <glyph glyph-name="longs" unicode="&#x17f;" horiz-adv-x="333" 
d="M96 0v371h-63v135h63v21q0 48 17 84.5t41.5 56.5t59 32t62 15.5t56.5 3.5l52 -3v-146q-12 2 -28 2q-34 0 -60.5 -12t-26.5 -41v-519h-173z" />
    <glyph glyph-name="florin" unicode="&#x192;" horiz-adv-x="593" 
d="M23 28q54 -7 70 -7q86 0 92 64l19 225h-62v135h74l9 90q5 48 25 84.5t46 56.5t60.5 32t62.5 15.5t58 3.5l88 -8v-146q-60 7 -76 7q-87 0 -93 -64l-7 -71h95v-135h-107l-21 -244q-4 -48 -24 -84.5t-46.5 -56.5t-61 -32t-62.5 -15.5t-57 -3.5l-82 8v146z" />
    <glyph glyph-name="Scommaaccent" unicode="&#x218;" horiz-adv-x="580" 
d="M31 90l92 133q9 -8 25 -20.5t61 -33t85 -20.5q31 0 53 13.5t22 43.5q0 19 -24 36.5t-59.5 30.5t-77.5 33.5t-77.5 44t-59.5 64.5t-24 93q0 97 72.5 158t180.5 61q68 0 125.5 -20.5t80.5 -40.5l24 -20l-74 -143q-8 7 -22.5 17.5t-56 28t-79.5 17.5q-31 0 -53.5 -14
t-22.5 -42q0 -24 33 -43t80.5 -37t95 -42t80.5 -69.5t33 -108.5q0 -93 -68 -157.5t-184 -64.5q-47 0 -91 10.5t-73.5 25.5t-52.5 30t-33 26zM213 -49h136q7 -29 7 -58q0 -47 -28 -103h-123q20 58 20 93q0 33 -12 68z" />
    <glyph glyph-name="scommaaccent" unicode="&#x219;" horiz-adv-x="471" 
d="M24 64l74 116q6 -6 17.5 -14.5t46 -23t67.5 -14.5q51 0 51 24q0 12 -25 23.5t-60 25t-70.5 32.5t-60.5 54.5t-25 82.5q0 71 60.5 114t151.5 43q34 0 65 -6t51 -14.5t35.5 -17.5t22.5 -15l7 -6l-59 -123q-6 5 -16 12t-42 18.5t-64 11.5q-51 0 -51 -25q0 -10 25 -20.5
t60 -23.5t70.5 -31.5t60.5 -54t25 -81.5q0 -69 -57.5 -116t-153.5 -47q-57 0 -108.5 19t-74.5 38zM159 -49h136q7 -29 7 -58q0 -47 -28 -103h-123q20 58 20 93q0 33 -12 68z" />
    <glyph glyph-name="uni021A" unicode="&#x21a;" horiz-adv-x="617" 
d="M221 0v565h-217v150h609v-150h-217v-565h-175zM231 -49h136q7 -29 7 -58q0 -47 -28 -103h-123q20 58 20 93q0 33 -12 68z" />
    <glyph glyph-name="uni021B" unicode="&#x21b;" horiz-adv-x="415" 
d="M90 190v181h-66v135h71v148h168v-148h108v-135h-108v-158q0 -66 92 -66l23 1v-150q-19 -3 -47 -3q-24 0 -46.5 2.5t-52 9.5t-53 21t-44.5 34.5t-33 53.5t-12 74zM162 -49h136q7 -29 7 -58q0 -47 -28 -103h-123q20 58 20 93q0 33 -12 68z" />
    <glyph glyph-name="circumflex" unicode="&#x2c6;" horiz-adv-x="486" 
d="M60 761l99 150h168l99 -150h-135l-47 82h-2l-47 -82h-135z" />
    <glyph glyph-name="caron" unicode="&#x2c7;" horiz-adv-x="486" 
d="M159 761l-99 150h135l47 -82h2l47 82h135l-99 -150h-168z" />
    <glyph glyph-name="breve" unicode="&#x2d8;" horiz-adv-x="484" 
d="M242 756q-73 0 -123.5 39t-50.5 106v10h117v-11q0 -28 17 -43t40 -15t40 15t17 43v11h117v-10q0 -67 -50.5 -106t-123.5 -39z" />
    <glyph glyph-name="dotaccent" unicode="&#x2d9;" horiz-adv-x="485" 
d="M171 779v132h143v-132h-143z" />
    <glyph glyph-name="ring" unicode="&#x2da;" horiz-adv-x="485" 
d="M242 747q-44 0 -76.5 22t-32.5 63t32.5 63.5t76.5 22.5t77 -22.5t33 -63.5t-33 -63t-77 -22zM242 797q16 0 25.5 9.5t9.5 25.5t-9.5 26t-25.5 10q-15 0 -24.5 -10t-9.5 -26t9 -25.5t25 -9.5z" />
    <glyph glyph-name="ogonek" unicode="&#x2db;" horiz-adv-x="486" 
d="M146 -111q0 36 26 70.5t52 51.5l26 17l90 -14q-57 -49 -57 -75q0 -10 9.5 -16t19.5 -7l9 -2l-42 -124q-5 1 -14 2t-32 8t-40.5 17t-32 29t-14.5 43z" />
    <glyph glyph-name="tilde" unicode="&#x2dc;" horiz-adv-x="485" 
d="M41 761q0 153 128 153q29 0 52 -15t41 -30t33 -15q37 0 37 57h112q0 -153 -128 -153q-29 0 -52 15t-41 30t-33 15q-37 0 -37 -57h-112z" />
    <glyph glyph-name="hungarumlaut" unicode="&#x2dd;" horiz-adv-x="485" 
d="M225 761l81 150h163l-118 -150h-126zM17 761l76 150h139l-79 -150h-136z" />
    <glyph glyph-name="uni1E9E" unicode="&#x1e9e;" horiz-adv-x="717" 
d="M75 0v480q0 106 66 170.5t175 64.5h326v-120l-92 -148l-20 -29v-2l9 -2q63 -14 98 -72t35 -124q0 -92 -67.5 -155t-163.5 -63h-118v150h105q31 0 47.5 20t16.5 48q0 27 -16 46.5t-48 19.5h-80v120l53 97q12 21 23 37.5t16 21.5l6 6v2q-9 -3 -45 -3h-84q-28 0 -45.5 -23
t-17.5 -58v-484h-179z" />
    <glyph glyph-name="thinspace" unicode="&#x2009;" horiz-adv-x="20" 
 />
    <glyph glyph-name="endash" unicode="&#x2013;" horiz-adv-x="730" 
d="M67 222v130h596v-130h-596z" />
    <glyph glyph-name="emdash" unicode="&#x2014;" horiz-adv-x="930" 
d="M67 222v130h796v-130h-796z" />
    <glyph glyph-name="quoteleft" unicode="&#x2018;" horiz-adv-x="259" 
d="M30 475l89 255h117l-54 -255h-152z" />
    <glyph glyph-name="quoteright" unicode="&#x2019;" horiz-adv-x="252" 
d="M35 475l54 255h152l-89 -255h-117z" />
    <glyph glyph-name="quotesinglbase" unicode="&#x201a;" horiz-adv-x="266" 
d="M21 -89l54 255h147l-89 -255h-112z" />
    <glyph glyph-name="quotedblleft" unicode="&#x201c;" horiz-adv-x="458" 
d="M228 475l89 255h118l-54 -255h-153zM30 475l89 255h118l-54 -255h-153z" />
    <glyph glyph-name="quotedblright" unicode="&#x201d;" horiz-adv-x="451" 
d="M233 475l54 255h153l-89 -255h-118zM35 475l54 255h153l-89 -255h-118z" />
    <glyph glyph-name="quotedblbase" unicode="&#x201e;" horiz-adv-x="458" 
d="M213 -89l54 255h147l-89 -255h-112zM21 -89l54 255h147l-89 -255h-112z" />
    <glyph glyph-name="dagger" unicode="&#x2020;" horiz-adv-x="490" 
d="M162 -50v435h-130v130h130v200h165v-200h131v-130h-131v-435h-165z" />
    <glyph glyph-name="daggerdbl" unicode="&#x2021;" horiz-adv-x="522" 
d="M48 150v130h130v105h-130v130h130v200h165v-200h131v-130h-131v-105h131v-130h-131v-200h-165v200h-130z" />
    <glyph glyph-name="bullet" unicode="&#x2022;" horiz-adv-x="466" 
d="M233 105q-77 0 -131.5 54.5t-54.5 131.5t54.5 131.5t131.5 54.5t131.5 -54.5t54.5 -131.5t-54.5 -131.5t-131.5 -54.5z" />
    <glyph glyph-name="ellipsis" unicode="&#x2026;" horiz-adv-x="922" 
d="M706 0v164h158v-164h-158zM382 0v164h158v-164h-158zM58 0v164h158v-164h-158z" />
    <glyph glyph-name="perthousand" unicode="&#x2030;" horiz-adv-x="1253" 
d="M210 382q-76 0 -128.5 50t-52.5 122q0 71 53 122t128 51t128 -51t53 -122q0 -72 -53 -122t-128 -50zM69 0l552 715h152l-552 -715h-152zM210 502q23 0 39 15.5t16 37.5q0 21 -16.5 36.5t-38.5 15.5t-38.5 -15.5t-16.5 -36.5q0 -22 16 -37.5t39 -15.5zM858 160
q0 71 53 122t128 51t128 -51t53 -122q0 -72 -53 -122t-128 -50q-76 0 -128.5 50t-52.5 122zM456 160q0 71 53 122t128 51t128 -51t53 -122q0 -72 -53 -122t-128 -50q-76 0 -128.5 50t-52.5 122zM984 161q0 -22 16 -37.5t39 -15.5t39 15.5t16 37.5q0 21 -16.5 36.5
t-38.5 15.5t-38.5 -15.5t-16.5 -36.5zM582 161q0 -22 16 -37.5t39 -15.5t39 15.5t16 37.5q0 21 -16.5 36.5t-38.5 15.5t-38.5 -15.5t-16.5 -36.5z" />
    <glyph glyph-name="guilsinglleft" unicode="&#x2039;" horiz-adv-x="383" 
d="M192 77l-164 205l164 206h158l-164 -206l164 -205h-158z" />
    <glyph glyph-name="guilsinglright" unicode="&#x203a;" horiz-adv-x="383" 
d="M33 77l164 205l-164 206h158l164 -206l-164 -205h-158z" />
    <glyph glyph-name="fraction" unicode="&#x2044;" horiz-adv-x="195" 
d="M-11 0h-119l336 715h119z" />
    <glyph glyph-name="zerosuperior" unicode="&#x2070;" 
d="M203 413q-170 0 -170 231q0 230 170 230t170 -230q0 -231 -170 -231zM203 528q43 0 43 116q0 114 -43 114t-43 -114q0 -116 43 -116z" />
    <glyph glyph-name="foursuperior" unicode="&#x2074;" 
d="M214 423v87h-197v84l171 270h150v-247h53v-107h-53v-87h-124zM136 617h78v90l4 50h-2q-9 -27 -21 -46l-59 -92v-2z" />
    <glyph glyph-name="fivesuperior" unicode="&#x2075;" 
d="M198 413q-46 0 -87 16.5t-59 32.5l-17 16l63 93q4 -5 11 -12t30.5 -19t48.5 -12q22 0 39.5 12.5t17.5 33.5q0 22 -17.5 34.5t-43.5 12.5q-17 0 -33.5 -3.5t-24.5 -6.5l-7 -3l-65 24l20 232h266v-109h-164l-2 -23l-3 -16l2 -1q17 4 43 4q69 0 112.5 -42.5t43.5 -103.5
q0 -64 -46.5 -112t-127.5 -48z" />
    <glyph glyph-name="sixsuperior" unicode="&#x2076;" 
d="M218 413q-75 0 -129 54t-54 155q0 99 57.5 175.5t155.5 76.5q28 0 54.5 -6t39.5 -12l12 -6l-32 -108q-37 16 -66 16q-58 0 -76 -52h2q18 6 37 6q74 0 115.5 -42t41.5 -104t-43 -107.5t-115 -45.5zM218 528q15 0 24 11.5t9 27.5q0 23 -13.5 40.5t-40.5 17.5q-34 0 -34 -19
q0 -35 16.5 -56.5t38.5 -21.5z" />
    <glyph glyph-name="sevensuperior" unicode="&#x2077;" 
d="M40 423l176 308l16 24v2q-17 -2 -30 -2h-161v109h334v-85l-198 -356h-137z" />
    <glyph glyph-name="eightsuperior" unicode="&#x2078;" 
d="M28 552q0 56 64 106q-43 36 -43 88q0 61 45.5 94.5t109.5 33.5q63 0 111 -34.5t48 -94.5q0 -46 -49 -100q59 -38 59 -99q0 -62 -50.5 -97.5t-119.5 -35.5q-71 0 -123 36.5t-52 102.5zM247 553q0 9 -5 17t-19 16.5t-22 12.5t-30 14q-22 -26 -22 -53q0 -19 15.5 -30
t37.5 -11q18 0 31.5 9t13.5 25zM169 740q0 -18 15.5 -30.5t45.5 -25.5q17 27 17 53q0 14 -13.5 22.5t-29.5 8.5q-35 0 -35 -28z" />
    <glyph glyph-name="ninesuperior" unicode="&#x2079;" 
d="M30 722q0 61 43 106.5t115 45.5q75 0 129 -54t54 -155q0 -99 -57.5 -175.5t-155.5 -76.5q-28 0 -54.5 6t-39.5 12l-12 6l32 108q37 -16 66 -16q58 0 76 52h-2q-18 -6 -37 -6q-73 0 -115 42.5t-42 104.5zM155 721q0 -23 13.5 -41t40.5 -18q34 0 34 19q0 35 -16.5 56.5
t-38.5 21.5q-15 0 -24 -11t-9 -27z" />
    <glyph glyph-name="zeroinferior" unicode="&#x2080;" 
d="M203 -167q-170 0 -170 231q0 230 170 230t170 -230q0 -231 -170 -231zM203 -52q43 0 43 116q0 114 -43 114t-43 -114q0 -116 43 -116z" />
    <glyph glyph-name="oneinferior" unicode="&#x2081;" 
d="M62 -157v108h89v143l3 32h-2q-5 -10 -11 -15l-24 -22l-72 79l124 116h108v-333h90v-108h-305z" />
    <glyph glyph-name="twoinferior" unicode="&#x2082;" 
d="M44 -157q-5 28 -5 49q0 50 20.5 88t49.5 59.5t58.5 38t50 33t20.5 34.5q0 16 -13 25t-32 9q-17 0 -35 -11.5t-27 -22.5l-9 -11l-83 71q2 4 6 10t19 21t32 27t45.5 21.5t60.5 9.5q64 0 113.5 -36.5t49.5 -106.5q0 -47 -27.5 -83.5t-61 -53t-63.5 -33.5t-33 -30h191v-108
h-327z" />
    <glyph glyph-name="threeinferior" unicode="&#x2083;" 
d="M191 -167q-48 0 -88 17t-56 34l-16 17l61 90q4 -5 11 -12t31 -19t49 -12t39.5 12t14.5 30t-17.5 27t-44.5 9h-37l-24 57l62 69l24 23v2q-21 -2 -34 -2h-110v109h294v-79l-83 -91q97 -24 97 -126q0 -62 -46 -108.5t-127 -46.5z" />
    <glyph glyph-name="fourinferior" unicode="&#x2084;" 
d="M212 -157v87h-197v84l171 270h150v-247h53v-107h-53v-87h-124zM134 37h78v90l4 50h-2q-9 -27 -21 -46l-59 -92v-2z" />
    <glyph glyph-name="fiveinferior" unicode="&#x2085;" 
d="M199 -167q-46 0 -87 16.5t-58 32.5l-18 16l63 93q4 -5 11 -12t30.5 -19t48.5 -12q22 0 39.5 12.5t17.5 33.5q0 22 -17.5 34.5t-43.5 12.5q-17 0 -33.5 -3.5t-23.5 -6.5l-8 -3l-65 24l20 232h266v-109h-164l-2 -23l-3 -16l2 -1q17 4 43 4q69 0 112.5 -42.5t43.5 -103.5
q0 -64 -46.5 -112t-127.5 -48z" />
    <glyph glyph-name="sixinferior" unicode="&#x2086;" 
d="M218 -167q-75 0 -129 54t-54 155q0 99 57.5 175.5t155.5 76.5q28 0 54.5 -6t39.5 -12l12 -6l-32 -108q-37 16 -66 16q-58 0 -76 -52h2q18 6 37 6q74 0 115.5 -42t41.5 -104t-43 -107.5t-115 -45.5zM218 -52q15 0 24 11.5t9 27.5q0 23 -13.5 40.5t-40.5 17.5
q-34 0 -34 -19q0 -35 16.5 -56.5t38.5 -21.5z" />
    <glyph glyph-name="seveninferior" unicode="&#x2087;" 
d="M35 -157l176 308l16 24v2q-17 -2 -30 -2h-161v109h334v-85l-198 -356h-137z" />
    <glyph glyph-name="eightinferior" unicode="&#x2088;" 
d="M28 -28q0 56 64 106q-43 36 -43 88q0 61 45.5 94.5t109.5 33.5q63 0 111 -34.5t48 -94.5q0 -46 -49 -100q59 -38 59 -99q0 -62 -50.5 -97.5t-119.5 -35.5q-71 0 -123 36.5t-52 102.5zM247 -27q0 9 -5 17t-19 16.5t-22 12.5t-30 14q-22 -26 -22 -53q0 -19 15.5 -30
t37.5 -11q18 0 31.5 9t13.5 25zM169 160q0 -18 15.5 -30.5t45.5 -25.5q17 27 17 53q0 14 -13.5 22.5t-29.5 8.5q-35 0 -35 -28z" />
    <glyph glyph-name="nineinferior" unicode="&#x2089;" 
d="M29 142q0 61 43 106.5t115 45.5q75 0 129 -54t54 -155q0 -99 -57.5 -175.5t-155.5 -76.5q-28 0 -54.5 6t-38.5 12l-13 6l32 108q37 -16 66 -16q58 0 76 52h-2q-18 -6 -37 -6q-73 0 -115 42.5t-42 104.5zM154 141q0 -23 13.5 -41t40.5 -18q34 0 34 19q0 35 -16.5 56.5
t-38.5 21.5q-15 0 -24 -11t-9 -27z" />
    <glyph glyph-name="Euro" unicode="&#x20ac;" horiz-adv-x="597" 
d="M27 237v96h56q-3 26 -1 48h-55v96h72q35 111 129.5 180.5t217.5 69.5q27 0 56 -3.5t45 -7.5l16 -3l-43 -158q-39 10 -79 10q-107 0 -154 -88h216l-20 -96h-219q-3 -22 2 -48h207l-20 -96h-155q24 -40 64 -62t87 -22q22 0 46 3.5t37 7.5l12 4l30 -160q-55 -20 -128 -20
q-127 0 -218.5 68t-126.5 181h-74z" />
    <glyph glyph-name="trademark" unicode="&#x2122;" horiz-adv-x="967" 
d="M443 268l35 447h118l73 -175l13 -44h2q7 29 13 44l73 175h118l33 -447h-127l-10 174l1 32h-2l-51 -125h-98l-51 125h-2l1 -32l-12 -174h-127zM158 268v338h-142v109h408v-109h-140v-338h-126z" />
    <glyph glyph-name="minus" unicode="&#x2212;" horiz-adv-x="630" 
d="M42 222v130h546v-130h-546z" />
    <glyph glyph-name="infinity" unicode="&#x221e;" horiz-adv-x="531" 
d="M266 143q-85 0 -145.5 60.5t-60.5 145.5t60.5 145t145.5 60q86 0 145.5 -60t59.5 -145t-60 -145.5t-145 -60.5z" />
    <glyph glyph-name="approxequal" unicode="&#x2248;" horiz-adv-x="630" 
d="M115 322l-63 99q81 81 165 81q50 0 107.5 -35t90.5 -35q55 0 102 54l63 -99q-81 -81 -165 -81q-50 0 -107.5 35t-90.5 35q-52 0 -102 -54zM115 93l-63 99q81 81 165 81q50 0 107.5 -35t90.5 -35q55 0 102 54l63 -99q-81 -81 -165 -81q-50 0 -107.5 35t-90.5 35
q-52 0 -102 -54z" />
    <glyph glyph-name="notequal" unicode="&#x2260;" horiz-adv-x="630" 
d="M112 47l38 60h-88v130h171l64 100h-235v130h319l69 108l76 -49l-38 -59h80v-130h-163l-64 -100h227v-130h-310l-68 -107z" />
    <glyph glyph-name="lessequal" unicode="&#x2264;" horiz-adv-x="630" 
d="M59 234v107l504 223v-145l-330 -131v-2l330 -130v-145zM62 -70h501v-130h-501v130z" />
    <glyph glyph-name="greaterequal" unicode="&#x2265;" horiz-adv-x="630" 
d="M67 11v145l330 130v2l-330 131v145l504 -223v-107zM68 -70h501v-130h-501v130z" />
    <glyph glyph-name="commaaccent" horiz-adv-x="335" 
d="M105 -49h136q7 -29 7 -58q0 -47 -28 -103h-123q20 58 20 93q0 33 -12 68z" />
    <glyph glyph-name="apple" horiz-adv-x="1130" 
d="M168 -5v152l-126 72v278l126 71v151l265 142l134 -71l132 71l265 -142v-151l124 -71v-278l-124 -72v-152l-265 -141l-132 71l-134 -71zM208 30l238 -126l121 66l118 -66l238 126v139l114 64v249l-114 66v136l-238 126l-118 -64l-121 64l-238 -126v-136l-114 -66v-249
l114 -64v-139zM242 64v121l-99 60v225l99 58v123l215 114l110 -59l107 59l214 -114v-123l100 -58v-225l-100 -60v-121l-214 -114l-107 58l-110 -58zM426 91h129v171h176v108h-176v128h85q10 0 13 -4.5t3 -16.5v-21h115v102q0 26 -10 37t-37 11h-346v-108h48v-407z" />
    <glyph glyph-name="zero.tnum" horiz-adv-x="600" 
d="M301 -12q-74 0 -127.5 28.5t-83.5 80.5t-44 117t-14 145t14 144.5t44 116t83.5 79.5t127.5 28t127.5 -28t83.5 -79.5t44 -116t14 -144.5t-14 -145t-44 -117t-83.5 -80.5t-127.5 -28.5zM301 148q89 0 89 211q0 208 -89 208t-89 -208q0 -211 89 -211z" />
    <glyph glyph-name="one.tnum" horiz-adv-x="600" 
d="M78 0v150h152v298l1 55h-2q-9 -20 -28 -38l-43 -39l-101 108l193 181h151v-565h153v-150h-476z" />
    <glyph glyph-name="two.tnum" horiz-adv-x="600" 
d="M60 0q-8 45 -8 77q0 62 23 115t57 87t74.5 65t74.5 52.5t57 46t23 48.5q0 35 -23 53t-54 18q-30 0 -56.5 -19t-37.5 -38l-12 -19l-130 87l8.5 16.5t27 37t47.5 47t71.5 37t97.5 16.5q98 0 171 -56.5t73 -162.5q0 -62 -29.5 -113t-72.5 -83.5t-85.5 -59t-73.5 -52
t-32 -50.5h304v-150h-495z" />
    <glyph glyph-name="three.tnum" horiz-adv-x="600" 
d="M42 82l84 135q7 -7 20 -17.5t51.5 -28.5t75.5 -18q47 0 74.5 20.5t27.5 50.5q0 79 -133 79h-50l-37 85l94 113l30.5 35t23.5 24l8 8v2q-23 -5 -68 -5h-171v150h451v-109l-145 -167q79 -17 126 -74t47 -133q0 -100 -69.5 -172t-195.5 -72q-45 0 -86.5 9.5t-69 23.5
t-48.5 28t-30 23z" />
    <glyph glyph-name="four.tnum" horiz-adv-x="600" 
d="M13 173v106l276 436h214v-397h85v-145h-85v-173h-173v173h-317zM191 318h139v160l6 80h-2q-15 -44 -35 -74l-108 -164v-2z" />
    <glyph glyph-name="five.tnum" horiz-adv-x="600" 
d="M40 82l84 135q7 -7 20 -17.5t51 -28.5t74 -18q39 0 69.5 23.5t30.5 64.5t-32 65t-82 24q-24 0 -48 -6t-36 -12l-12 -6l-93 35l29 374h400v-150h-248l-4 -66l-4 -28h2q25 7 52 7q122 0 189 -66.5t67 -168.5q0 -111 -74 -183t-191 -72q-44 0 -85.5 9.5t-69 23.5t-48.5 28
t-31 23z" />
    <glyph glyph-name="six.tnum" horiz-adv-x="600" 
d="M325 -12q-118 0 -204 89t-86 253q0 74 22.5 144t64 127t108 91.5t146.5 34.5q44 0 83.5 -7.5t56.5 -15.5l18 -8l-47 -150q-47 21 -98 21q-115 0 -154 -118h2q13 9 43 17t55 8q106 0 170 -73.5t64 -171.5q0 -97 -66.5 -169t-177.5 -72zM325 148q32 0 52 23.5t20 56.5
q0 43 -27 74t-81 31q-74 0 -74 -43q0 -60 35 -101t75 -41z" />
    <glyph glyph-name="seven.tnum" horiz-adv-x="600" 
d="M82 0l251 501q11 22 22.5 38t17.5 21l6 6v2q-10 -3 -46 -3h-282v150h513v-122l-300 -593h-182z" />
    <glyph glyph-name="eight.tnum" horiz-adv-x="600" 
d="M32 210q0 42 22 82.5t40 59t37 32.5q-65 56 -65 137q0 86 61 146t179 60q104 0 173 -55.5t69 -151.5q0 -73 -70 -163q84 -58 84 -151q0 -89 -70 -153.5t-195 -64.5q-124 0 -194.5 65.5t-70.5 156.5zM383 215q0 7 -2 13t-7 12t-10 11t-14.5 11l-15.5 10t-19 10l-20.5 9.5
l-23 10.5l-22.5 10q-38 -40 -38 -87q0 -35 25 -59t61 -24q40 0 63 19t23 54zM237 517q0 -32 28 -52.5t87 -45.5q25 46 25 88q0 30 -20 48t-55 18q-32 0 -48.5 -15.5t-16.5 -40.5z" />
    <glyph glyph-name="nine.tnum" horiz-adv-x="600" 
d="M225 -12q-44 0 -83.5 8t-57.5 16l-17 7l47 150q47 -21 98 -21q115 0 154 118h-2q-12 -10 -42 -17.5t-56 -7.5q-106 0 -170 73.5t-64 171.5q0 97 66.5 169t177.5 72q118 0 204 -89t86 -253q0 -74 -22.5 -144t-64 -127t-108 -91.5t-146.5 -34.5zM312 382q74 0 74 43
q0 60 -35 101t-75 41q-32 0 -52 -23.5t-20 -56.5q0 -43 27 -74t81 -31z" />
    <glyph glyph-name="hyphen.case" horiz-adv-x="484" 
d="M85 272v150h314v-150h-314z" />
    <glyph glyph-name="parenleft.case" horiz-adv-x="374" 
d="M343 -65h-142q-124 196 -124 442q0 212 124 403h142q-113 -189 -113 -403q0 -227 113 -442z" />
    <glyph glyph-name="parenright.case" horiz-adv-x="374" 
d="M173 -65h-142q113 215 113 442q0 214 -113 403h142q124 -191 124 -403q0 -246 -124 -442z" />
    <glyph glyph-name="bracketleft.case" horiz-adv-x="408" 
d="M103 -65v845h246v-120h-102v-605h102v-120h-246z" />
    <glyph glyph-name="bracketright.case" horiz-adv-x="408" 
d="M305 780v-845h-246v120h102v605h-102v120h246z" />
    <glyph glyph-name="braceleft.case" horiz-adv-x="446" 
d="M144 92v98q0 27 -9 46.5t-21 28.5t-24.5 14.5t-21.5 6.5h-9v150q3 0 9 0.5t20.5 6t26 14.5t20.5 29.5t9 48.5v88q0 50 20.5 85t54 50.5t63 21t61.5 5.5l43 -2v-124q-11 2 -25 2q-73 0 -73 -54v-117q0 -29 -8.5 -52.5t-21 -36.5t-25 -22.5t-21.5 -12.5l-8 -3v-2l9 -3
t20.5 -11.5t25.5 -22t20 -36.5t9 -53v-127q0 -54 73 -54l25 2v-124q-18 -2 -43 -2q-32 0 -61.5 5.5t-63 21t-54 50.5t-20.5 85z" />
    <glyph glyph-name="braceright.case" horiz-adv-x="446" 
d="M60 56q11 -2 25 -2q73 0 73 54v127q0 29 8.5 53t21 37t25 21.5t21.5 11.5l8 3v2q-3 1 -9 3.5t-20.5 12t-25.5 22.5t-20 36.5t-9 52.5v117q0 54 -73 54l-25 -2v124q18 2 43 2q32 0 61.5 -5.5t63 -21t54 -50.5t20.5 -85v-88q0 -44 21 -68.5t43 -27.5l21 -3v-150
q-3 0 -9 -0.5t-20.5 -6t-26 -14.5t-20.5 -28.5t-9 -46.5v-98q0 -50 -20.5 -85t-54 -50.5t-63 -21t-61.5 -5.5l-43 2v124z" />
    <glyph glyph-name="at.case" horiz-adv-x="878" 
d="M59 355q0 159 112.5 267.5t280.5 108.5q156 0 227 -66.5t71 -173.5v-198h74v-119h-283q-106 0 -166.5 54t-60.5 128q0 72 59.5 124t167.5 52h49q0 30 -41.5 47t-93.5 17q-95 0 -161 -73.5t-66 -167.5q0 -101 67 -170t185 -69v-130q-192 0 -306.5 105t-114.5 264zM485 360
q0 -29 17 -48t49 -19h39v134h-37q-33 0 -50.5 -19t-17.5 -48z" />
    <glyph glyph-name="guillemotleft.case" horiz-adv-x="683" 
d="M308 342l164 206h158l-164 -206l164 -205h-158zM212 137l-164 205l164 206h158l-164 -206l164 -205h-158z" />
    <glyph glyph-name="guillemotright.case" horiz-adv-x="683" 
d="M313 137l164 205l-164 206h158l164 -206l-164 -205h-158zM53 137l164 205l-164 206h158l164 -206l-164 -205h-158z" />
    <glyph glyph-name="guilsinglleft.case" horiz-adv-x="423" 
d="M212 137l-164 205l164 206h158l-164 -206l164 -205h-158z" />
    <glyph glyph-name="guilsinglright.case" horiz-adv-x="423" 
d="M53 137l164 205l-164 206h158l164 -206l-164 -205h-158z" />
    <glyph glyph-name="endash.case" horiz-adv-x="766" 
d="M85 282v130h596v-130h-596z" />
    <glyph glyph-name="emdash.case" horiz-adv-x="966" 
d="M85 282v130h796v-130h-796z" />
    <glyph glyph-name="periodcentered.case" horiz-adv-x="328" 
d="M85 263v164h158v-164h-158z" />
    <glyph glyph-name="questiondown.case" horiz-adv-x="544" 
d="M232 565v150h158v-150h-158zM57 184q0 45 17.5 82.5t42.5 61t50.5 44t43 43t17.5 46.5v33h166v-47q0 -37 -16 -68.5t-39 -52t-46.5 -39t-39.5 -39.5t-16 -44q0 -25 21 -42t50 -17q21 0 45 10.5t37 21.5l13 11l96 -117l-9 -9t-26 -20t-42.5 -25t-58 -20t-73.5 -9
q-92 0 -162.5 52.5t-70.5 143.5z" />
    <glyph glyph-name="exclamdown.case" horiz-adv-x="386" 
d="M114 565v150h158v-150h-158zM103 0l16 494h148l16 -494h-180z" />
    <glyph glyph-name="bullet.case" horiz-adv-x="506" 
d="M253 170q-77 0 -131.5 54.5t-54.5 131.5t54.5 131.5t131.5 54.5t131.5 -54.5t54.5 -131.5t-54.5 -131.5t-131.5 -54.5z" />
    <glyph glyph-name="zero.p_osf" horiz-adv-x="591" 
d="M40 278q0 56 14.5 106t44 92t80.5 66.5t117 24.5q87 0 146.5 -43.5t84 -107t24.5 -140.5q0 -122 -63.5 -205t-191.5 -83q-66 0 -117 24.5t-80.5 66.5t-44 92t-14.5 107zM296 132q82 0 82 144q0 147 -82 147t-82 -145q0 -146 82 -146z" />
    <glyph glyph-name="one.p_osf" horiz-adv-x="527" 
d="M58 0v145h143v162l1 74h-2q-15 -18 -38 -32l-55 -31l-79 118l193 119h147v-410h134v-145h-444z" />
    <glyph glyph-name="two.p_osf" horiz-adv-x="559" 
d="M49 0v115q269 161 269 247q0 29 -20 43t-46 14q-31 0 -64.5 -17.5t-51.5 -35.5l-18 -17l-88 111q4 4 10.5 11.5t30.5 26t50.5 32.5t68.5 25.5t86 11.5q86 0 151.5 -46t65.5 -135q0 -140 -197 -244v-2q23 5 68 5h155v-145h-470z" />
    <glyph glyph-name="three.p_osf" horiz-adv-x="545" 
d="M8 -41l75 121q8 -7 21.5 -17.5t52 -28.5t73.5 -18q48 0 75.5 20t27.5 52q0 43 -39.5 64t-88.5 21h-59l-37 79l79 97q15 18 30.5 33.5t23.5 22.5l8 7v1q-23 -4 -68 -4h-138v146h431v-98l-149 -166q78 -14 129.5 -66.5t51.5 -123.5q0 -96 -70.5 -162.5t-198.5 -66.5
q-67 0 -124.5 22t-81.5 44z" />
    <glyph glyph-name="four.p_osf" horiz-adv-x="620" 
d="M22 23v106l257 426h223v-387h85v-145h-85v-139h-173v139h-307zM200 168h129v156l6 80h-2q-16 -43 -35 -74z" />
    <glyph glyph-name="five.p_osf" horiz-adv-x="552" 
d="M21 -42l73 122q7 -7 20 -17.5t51.5 -28.5t74.5 -18q42 0 74.5 22t32.5 62q0 43 -32 68t-80 25q-26 0 -51 -5.5t-38 -11.5l-12 -5l-88 33l29 351h385v-146h-238l-4 -64l-4 -27h2q25 7 52 7q120 0 186.5 -62.5t66.5 -153.5q0 -107 -74.5 -172t-192.5 -65q-42 0 -81 9
t-65.5 21.5t-47 25t-30.5 21.5z" />
    <glyph glyph-name="six.p_osf" horiz-adv-x="597" 
d="M45 305q0 71 21.5 137t61 120.5t104 87.5t143.5 33q44 0 83.5 -7.5t57.5 -14.5l17 -7l-47 -135q-47 20 -98 20q-55 0 -93.5 -34t-56.5 -83h2q13 8 43.5 15.5t55.5 7.5q105 0 167 -68t62 -160q0 -91 -65.5 -160t-173.5 -69q-56 0 -105.5 19t-90 56t-64.5 99.5t-24 142.5z
M221 272q0 -58 31.5 -99t76.5 -41q30 0 48.5 23t18.5 59q0 40 -26 69t-77 29q-72 0 -72 -40z" />
    <glyph glyph-name="seven.p_osf" horiz-adv-x="549" 
d="M60 -116l238 466q11 21 20.5 36t13.5 20l4 5v2q-5 -3 -41 -3h-269v145h502v-115l-287 -556h-181z" />
    <glyph glyph-name="eight.p_osf" horiz-adv-x="599" 
d="M39 197q0 88 95 164q-63 53 -63 127q0 80 59.5 137t172.5 57q100 0 168 -52.5t68 -142.5q0 -75 -61 -156q79 -53 79 -138q0 -83 -69 -144t-191 -61q-120 0 -189 61.5t-69 147.5zM383 201q0 6 -2 12t-7 12t-9.5 10.5t-13.5 10t-16 9l-19 9.5l-19.5 9.5t-22 9.5t-22.5 10
q-42 -40 -42 -82q0 -33 25.5 -56.5t61.5 -23.5q40 0 63 18.5t23 51.5zM236 485q0 -30 28.5 -50t85.5 -43q24 41 24 83q0 29 -20 46.5t-53 17.5q-32 0 -48.5 -15.5t-16.5 -38.5z" />
    <glyph glyph-name="nine.p_osf" horiz-adv-x="598" 
d="M111 36q47 -20 98 -20q55 0 93.5 34t56.5 83h-2q-13 -8 -43.5 -15.5t-55.5 -7.5q-105 0 -167 68t-62 160q0 91 65.5 160t173.5 69q56 0 105.5 -19t90 -56t64.5 -99.5t24 -142.5q0 -71 -21.5 -137t-61 -120.5t-104 -87.5t-143.5 -33q-44 0 -83.5 7t-56.5 15l-18 7z
M304 243q72 0 72 40q0 58 -31.5 99t-76.5 41q-30 0 -48.5 -23t-18.5 -59q0 -40 26 -69t77 -29z" />
    <glyph glyph-name="zero.t_osf" horiz-adv-x="600" 
d="M45 278q0 56 14.5 106t44 92t80.5 66.5t117 24.5q87 0 146.5 -43.5t84 -107t24.5 -140.5q0 -122 -63.5 -205t-191.5 -83q-66 0 -117 24.5t-80.5 66.5t-44 92t-14.5 107zM301 132q82 0 82 144q0 147 -82 147t-82 -145q0 -146 82 -146z" />
    <glyph glyph-name="one.t_osf" horiz-adv-x="600" 
d="M99 0v145h143v162l1 74h-2q-15 -18 -38 -32l-55 -31l-79 118l193 119h147v-410h134v-145h-444z" />
    <glyph glyph-name="two.t_osf" horiz-adv-x="600" 
d="M72 0v115q269 161 269 247q0 29 -20 43t-46 14q-31 0 -64.5 -17.5t-51.5 -35.5l-18 -17l-88 111q4 4 10.5 11.5t30.5 26t50.5 32.5t68.5 25.5t86 11.5q86 0 151.5 -46t65.5 -135q0 -140 -197 -244v-2q23 5 68 5h155v-145h-470z" />
    <glyph glyph-name="three.t_osf" horiz-adv-x="600" 
d="M46 -39l75 121l21 -17.5t51.5 -28.5t73.5 -18q48 0 75.5 20t27.5 52q0 42 -39.5 63t-88.5 21h-59l-36 79l78 97q15 17 30.5 32.5t23.5 22.5l8 7v1q-23 -4 -68 -4h-137v146h429v-98l-148 -165q78 -14 129 -66.5t51 -122.5q0 -95 -70.5 -161.5t-197.5 -66.5q-42 0 -81 9
t-65 21.5t-45.5 25t-28.5 21.5z" />
    <glyph glyph-name="four.t_osf" horiz-adv-x="600" 
d="M19 23v106l257 426h223v-387h85v-145h-85v-139h-173v139h-307zM197 168h129v156l6 80h-2q-16 -43 -35 -74z" />
    <glyph glyph-name="five.t_osf" horiz-adv-x="600" 
d="M49 -42l73 122q7 -7 20 -17.5t51.5 -28.5t74.5 -18q42 0 74.5 22t32.5 62q0 43 -32 68t-80 25q-26 0 -51 -5.5t-38 -11.5l-12 -5l-88 33l29 351h385v-146h-238l-4 -64l-4 -27h2q25 7 52 7q120 0 186.5 -62.5t66.5 -153.5q0 -107 -74.5 -172t-192.5 -65q-42 0 -81 9
t-65.5 21.5t-47 25t-30.5 21.5z" />
    <glyph glyph-name="six.t_osf" horiz-adv-x="600" 
d="M39 305q0 71 21.5 137t61 120.5t104 87.5t143.5 33q44 0 83.5 -7.5t57.5 -14.5l17 -7l-47 -135q-47 20 -98 20q-55 0 -93.5 -34t-56.5 -83h2q13 8 43.5 15.5t55.5 7.5q105 0 167 -68t62 -160q0 -91 -65.5 -160t-173.5 -69q-56 0 -105.5 19t-90 56t-64.5 99.5t-24 142.5z
M215 272q0 -58 31.5 -99t76.5 -41q30 0 48.5 23t18.5 59q0 40 -26 69t-77 29q-72 0 -72 -40z" />
    <glyph glyph-name="seven.t_osf" horiz-adv-x="600" 
d="M83 -116l238 466q11 21 20.5 36t13.5 20l4 5v2q-5 -3 -41 -3h-269v145h502v-115l-287 -556h-181z" />
    <glyph glyph-name="eight.t_osf" horiz-adv-x="600" 
d="M39 197q0 88 95 164q-63 53 -63 127q0 80 59.5 137t172.5 57q100 0 168 -52.5t68 -142.5q0 -75 -61 -156q79 -53 79 -138q0 -83 -69 -144t-191 -61q-120 0 -189 61.5t-69 147.5zM383 201q0 6 -2 12t-7 12t-9.5 10.5t-13.5 10t-16 9l-19 9.5l-19.5 9.5t-22 9.5t-22.5 10
q-42 -40 -42 -82q0 -33 25.5 -56.5t61.5 -23.5q40 0 63 18.5t23 51.5zM236 485q0 -30 28.5 -50t85.5 -43q24 41 24 83q0 29 -20 46.5t-53 17.5q-32 0 -48.5 -15.5t-16.5 -38.5z" />
    <glyph glyph-name="nine.t_osf" horiz-adv-x="600" 
d="M120 36q47 -20 98 -20q55 0 93.5 34t56.5 83h-2q-13 -8 -43.5 -15.5t-55.5 -7.5q-105 0 -167 68t-62 160q0 91 65.5 160t173.5 69q56 0 105.5 -19t90 -56t64.5 -99.5t24 -142.5q0 -71 -21.5 -137t-61 -120.5t-104 -87.5t-143.5 -33q-44 0 -83.5 7t-57.5 15l-17 7z
M313 243q72 0 72 40q0 58 -31.5 99t-76.5 41q-30 0 -48.5 -23t-18.5 -59q0 -40 26 -69t77 -29z" />
    <glyph glyph-name="dollar.osf" horiz-adv-x="549" 
d="M38 83l78 129q8 -8 22 -20t52.5 -32t71.5 -20q67 0 67 34q0 14 -28.5 28t-69 30t-81 37.5t-69 60.5t-28.5 90q0 66 47.5 111t125.5 60v93h109v-90q47 -5 87.5 -21t57.5 -29l16 -14l-61 -138q-7 6 -19 15t-47 23.5t-67 14.5q-69 0 -69 -36q0 -13 28.5 -25t69 -26.5
t81 -35.5t69 -59.5t28.5 -90.5q0 -65 -46.5 -114t-127.5 -64v-94h-109v91q-53 7 -100 30t-68 43z" />
    <glyph glyph-name="cent.osf" horiz-adv-x="555" 
d="M38 300q0 87 52 155t145 91v83h114v-76q47 -6 89 -25.5t60 -35.5l18 -17l-78 -124q-5 6 -15 14.5t-38 23t-55 14.5q-58 0 -89 -30.5t-31 -70.5q0 -43 30.5 -74t89.5 -31q27 0 54 13t40 26l14 13l78 -124q-7 -7 -20 -18.5t-56.5 -33t-90.5 -26.5v-77h-114v84
q-93 22 -145 90.5t-52 155.5z" />
    <glyph glyph-name="sterling.osf" horiz-adv-x="627" 
d="M49 0v145h55v86h-43v108h43v42q0 95 73.5 155.5t180.5 60.5q52 0 101 -15t72 -30l23 -15l-73 -126q-60 34 -118 34q-33 0 -58.5 -18t-25.5 -46v-42h180v-108h-180v-86h289v-145h-519z" />
    <glyph glyph-name="yen.osf" horiz-adv-x="674" 
d="M85 292v96h65l-112 197h199l53 -118l43 -110h2q21 61 43 110l53 118h199l-113 -197h74v-96h-129l-34 -59h163v-96h-170v-137h-175v137h-161v96h154l-34 59h-120z" />
    <glyph glyph-name="florin.osf" horiz-adv-x="589" 
d="M23 27q54 -7 70 -7q87 0 93 64l16 182h-64v135h75l9 90q5 48 24.5 84.5t45.5 56.5t61 32t62.5 15.5t57.5 3.5l88 -8v-146q-60 7 -76 7q-88 0 -94 -64l-7 -71h96v-135h-108l-17 -201q-4 -48 -24 -84.5t-46 -56.5t-61 -32t-62.5 -15.5t-56.5 -3.5l-82 8v146z" />
    <glyph glyph-name="Euro.osf" horiz-adv-x="586" 
d="M44 184v86h64q-1 8 -1 45h-63v86h79q31 87 110.5 141.5t199.5 54.5q26 0 52 -3t39 -6l12 -3l-37 -135q-32 9 -70 9q-80 0 -123 -58h184l-19 -86h-190q-3 -20 2 -45h182l-16 -86h-132q43 -55 119 -55q21 0 42.5 3.5t33.5 7.5l11 3l25 -137q-49 -18 -115 -18
q-117 0 -196 54.5t-112 141.5h-81z" />
    <glyph glyph-name="zero.numerator" 
d="M203 264q-170 0 -170 231q0 230 170 230t170 -230q0 -231 -170 -231zM203 379q43 0 43 116q0 114 -43 114t-43 -114q0 -116 43 -116z" />
    <glyph glyph-name="one.numerator" 
d="M56 274v108h89v143l3 32h-2q-5 -10 -11 -15l-24 -22l-72 79l124 116h108v-333h90v-108h-305z" />
    <glyph glyph-name="two.numerator" 
d="M44 274q-5 28 -5 49q0 50 20.5 88t49.5 59.5t58.5 38t50 33t20.5 34.5q0 16 -13 25t-32 9q-17 0 -35 -11t-27 -23l-9 -11l-83 71q2 4 6 10t19 21t32 27t45.5 21.5t60.5 9.5q64 0 113.5 -36.5t49.5 -106.5q0 -47 -27.5 -83.5t-61 -53t-63.5 -33.5t-33 -30h191v-108h-327z
" />
    <glyph glyph-name="three.numerator" 
d="M191 264q-48 0 -88 17t-56 34l-16 17l61 90q4 -5 11 -12t31 -19t49 -12t39.5 12t14.5 30t-17.5 27t-44.5 9h-37l-24 57l62 69l24 23v2q-21 -2 -34 -2h-110v109h294v-79l-83 -91q97 -24 97 -126q0 -62 -46 -108.5t-127 -46.5z" />
    <glyph glyph-name="four.numerator" 
d="M215 274v87h-197v84l171 270h150v-247h53v-107h-53v-87h-124zM137 468h78v90l4 50h-2q-9 -27 -21 -46l-59 -92v-2z" />
    <glyph glyph-name="five.numerator" 
d="M193 264q-29 0 -56.5 6.5t-46 16t-33 19.5t-21.5 16l-6 7l63 93q4 -5 11 -12t30.5 -19t48.5 -12q22 0 39.5 12.5t17.5 33.5q0 22 -17.5 34.5t-43.5 12.5q-17 0 -33.5 -3t-23.5 -7l-8 -3l-65 24l20 232h266v-109h-164l-2 -23l-3 -16l2 -1q17 4 43 4q69 0 112.5 -42.5
t43.5 -103.5q0 -64 -46.5 -112t-127.5 -48z" />
    <glyph glyph-name="six.numerator" 
d="M218 264q-75 0 -129 54t-54 155q0 99 57.5 175.5t155.5 76.5q28 0 54.5 -6t39.5 -12l12 -6l-32 -108q-37 16 -66 16q-58 0 -76 -52h2q18 6 37 6q74 0 115.5 -42t41.5 -104t-43 -107.5t-115 -45.5zM218 379q15 0 24 11.5t9 27.5q0 23 -13.5 40.5t-40.5 17.5q-34 0 -34 -19
q0 -35 16.5 -56.5t38.5 -21.5z" />
    <glyph glyph-name="seven.numerator" 
d="M42 274l176 308l16 24v2q-17 -2 -30 -2h-161v109h334v-85l-198 -356h-137z" />
    <glyph glyph-name="eight.numerator" 
d="M28 403q0 56 64 106q-43 36 -43 88q0 61 45.5 94.5t109.5 33.5q63 0 111 -34.5t48 -94.5q0 -46 -49 -100q59 -38 59 -99q0 -62 -50.5 -97.5t-119.5 -35.5q-71 0 -123 36.5t-52 102.5zM247 404q0 9 -5 17t-19 16.5t-22 12.5t-30 14q-22 -26 -22 -53q0 -19 15.5 -30
t37.5 -11q18 0 31.5 9t13.5 25zM169 591q0 -18 15.5 -30.5t45.5 -25.5q17 27 17 53q0 14 -13.5 22.5t-29.5 8.5q-35 0 -35 -28z" />
    <glyph glyph-name="nine.numerator" 
d="M29 573q0 61 43 106.5t115 45.5q75 0 129 -54t54 -155q0 -99 -57.5 -175.5t-155.5 -76.5q-28 0 -54.5 6t-38.5 12l-13 6l32 108q37 -16 66 -16q58 0 76 52h-2q-18 -6 -37 -6q-73 0 -115 42.5t-42 104.5zM154 572q0 -23 13.5 -41t40.5 -18q34 0 34 19q0 35 -16.5 56.5
t-38.5 21.5q-15 0 -24 -11t-9 -27z" />
    <glyph glyph-name="zero.denominator" 
d="M203 -10q-170 0 -170 231q0 230 170 230t170 -230q0 -231 -170 -231zM203 105q43 0 43 116q0 114 -43 114t-43 -114q0 -116 43 -116z" />
    <glyph glyph-name="one.denominator" 
d="M62 0v108h89v143l3 32h-2q-5 -10 -11 -15l-24 -22l-72 79l124 116h108v-333h90v-108h-305z" />
    <glyph glyph-name="two.denominator" 
d="M44 0q-5 28 -5 49q0 50 20.5 88t49.5 59.5t58.5 38t50 33t20.5 34.5q0 16 -13 25t-32 9q-17 0 -35 -11t-27 -23l-9 -11l-83 71q2 4 6 10t19 21t32 27t45.5 21.5t60.5 9.5q64 0 113.5 -36.5t49.5 -106.5q0 -47 -27.5 -83.5t-61 -53t-63.5 -33.5t-33 -30h191v-108h-327z
" />
    <glyph glyph-name="three.denominator" 
d="M191 -10q-48 0 -88 17t-56 34l-16 17l61 90q4 -5 11 -12t31 -19t49 -12t39.5 12t14.5 30t-17.5 27t-44.5 9h-37l-24 57l62 69l24 23v2q-21 -2 -34 -2h-110v109h294v-79l-83 -91q97 -24 97 -126q0 -62 -46 -108.5t-127 -46.5z" />
    <glyph glyph-name="four.denominator" 
d="M205 0v87h-197v84l171 270h150v-247h53v-107h-53v-87h-124zM127 194h78v90l4 50h-2q-9 -27 -21 -46l-59 -92v-2z" />
    <glyph glyph-name="five.denominator" 
d="M199 -10q-29 0 -56.5 6.5t-46 16t-33 19.5t-21.5 16l-6 7l63 93q4 -5 11 -12t30.5 -19t48.5 -12q22 0 39.5 12.5t17.5 33.5q0 22 -17.5 34.5t-43.5 12.5q-17 0 -33.5 -3t-23.5 -7l-8 -3l-65 24l20 232h266v-109h-164l-2 -23l-3 -16l2 -1q17 4 43 4q69 0 112.5 -42.5
t43.5 -103.5q0 -64 -46.5 -112t-127.5 -48z" />
    <glyph glyph-name="six.denominator" 
d="M218 -10q-75 0 -129 54t-54 155q0 99 57.5 175.5t155.5 76.5q28 0 54.5 -6t39.5 -12l12 -6l-32 -108q-37 16 -66 16q-58 0 -76 -52h2q18 6 37 6q74 0 115.5 -42t41.5 -104t-43 -107.5t-115 -45.5zM218 105q15 0 24 11.5t9 27.5q0 23 -13.5 40.5t-40.5 17.5q-34 0 -34 -19
q0 -35 16.5 -56.5t38.5 -21.5z" />
    <glyph glyph-name="seven.denominator" 
d="M15 0l176 308l16 24v2q-17 -2 -30 -2h-161v109h334v-85l-198 -356h-137z" />
    <glyph glyph-name="eight.denominator" 
d="M28 129q0 56 64 106q-43 36 -43 88q0 61 45.5 94.5t109.5 33.5q63 0 111 -34.5t48 -94.5q0 -46 -49 -100q59 -38 59 -99q0 -62 -50.5 -97.5t-119.5 -35.5q-71 0 -123 36.5t-52 102.5zM247 130q0 9 -5 17t-19 16.5t-22 12.5t-30 14q-22 -26 -22 -53q0 -19 15.5 -30
t37.5 -11q18 0 31.5 9t13.5 25zM169 317q0 -18 15.5 -30.5t45.5 -25.5q17 27 17 53q0 14 -13.5 22.5t-29.5 8.5q-35 0 -35 -28z" />
    <glyph glyph-name="nine.denominator" 
d="M29 299q0 61 43 106.5t115 45.5q75 0 129 -54t54 -155q0 -99 -57.5 -175.5t-155.5 -76.5q-28 0 -54.5 6t-38.5 12l-13 6l32 108q37 -16 66 -16q58 0 76 52h-2q-18 -6 -37 -6q-73 0 -115 42.5t-42 104.5zM154 298q0 -23 13.5 -41t40.5 -18q34 0 34 19q0 35 -16.5 56.5
t-38.5 21.5q-15 0 -24 -11t-9 -27z" />
    </font>
</defs>
</svg>
